Marvels Cloak and Dagger S01E05 FRENCH WEBRip XviD-ZT | SWEDISH FARM | Leya Catlett

Скачать через торрент Дорога из жёлтого кирпича Серии: 1-4 из 4 Фильм бесплатно в хорошем качестве torrent

Скачивайте на UnionPeer.org фильмы через торрент без регистрации. Новинки кино в хорошем качестве через торрент. На UnionPeer.org можно скачать через торрент фильмы 2014 и 2015 годов. Самые новые фильмы.

Скачать торрент Дорога из жёлтого кирпича Серии: 1-4 из 4 бесплатно через .torrent фильм мультфильм сериал

Статистика раздачи
Размер:  4.58 GB   |    Зарегистрирован:  4 месяца 7 дней   |    .torrent скачан:  48 раз   |   
Раздают:  1  
   
загрузка...
 
Автор Сообщение

Galfimbul

avatar Galfimbul


Дорога из жёлтого кирпича

Год выпуска: 2017
Производство: Маурис Филм
Жанр: мелодрама
Продолжительность: ~00:45:00 серия
Субтитры: нет

Режиссёр: Екатерина Шагалова

В ролях: Дмитрий Марьянов, Мария Шалаева, Даниил Спиваковский, Екатерина Волкова, Евгений Сидихин, Екатерина Вуличенко, Андрей Барило, Иван Щенин, Александр Булатов, Григорий Середа

Описание: Девушка Варя случайно встречает свою детскую любовь — Ивана Петровича Соболя. От своей школьной подруги она узнает, что тот потерял жену и ребенка в автомобильной аварии. Варя решает рассказать Ивану историю о том, как 10 лет назад в клинике, где она работала, перепутали ЭКО материалы, и о том, что у него в другой семье растет его биологический сын…

Реклама: Нет.



Sample

Качество: WEBRip 1080p - Nicodem.Files-x
Формат: MKV
Видео кодек: H.264
Аудио кодек: AC3
Видео: MPEG4 AVC Video, H264, 16:9, 1920x1080, 24 fps, ~3500 kbps, 0.071 bit/pixel
Аудио: AC3 Dolby Digital, 44.1 kHz, 2/0 (L,R) ch, 192 kbps
General
Unique ID : 253046743235535756223689669567867829218 (0xBE5F07AEE9872DD4AB5393A5D4C4BBE2)
Complete name : D:\Дорога из желтого кирпича.2017.WEB-DL (1080p).by.Nicodem.Files-x\01.Дорога из желтого кирпича.2017.WEB-DL (1080p).by.Nicodem.Files-x.mkv
Format : Matroska
Format version : Version 4 / Version 2
File size : 1.20 GiB
Duration : 44mn 56s
Overall bit rate : 3 811 Kbps
Encoded date : UTC 2018-03-10 21:53:36
Writing application : mkvmerge v6.1.0 ('Old Devil') built on Mar 2 2013 14:32:37
Writing library : libebml v1.3.0 + libmatroska v1.4.0

Video
ID : 1
Format : AVC
Format/Info : Advanced Video Codec
Format profile : [email protected]
Format settings, CABAC : Yes
Format settings, ReFrames : 2 frames
Codec ID : V_MPEG4/ISO/AVC
Duration : 44mn 56s
Bit rate : 3 543 Kbps
Width : 1 920 pixels
Height : 1 080 pixels
Display aspect ratio : 16:9
Frame rate mode : Constant
Frame rate : 24.000 fps
Color space : YUV
Chroma subsampling : 4:2:0
Bit depth : 8 bits
Scan type : Progressive
Bits/(Pixel*Frame) : 0.071
Stream size : 1.11 GiB (93%)
Default : Yes
Forced : No
Color primaries : BT.601 PAL
Transfer characteristics : BT.709
Matrix coefficients : BT.601

Audio
ID : 2
Format : AC-3
Format/Info : Audio Coding 3
Mode extension : CM (complete main)
Format settings, Endianness : Big
Codec ID : A_AC3
Duration : 44mn 56s
Bit rate mode : Constant
Bit rate : 192 Kbps
Channel count : 2 channels
Channel positions : Front: L R
Sampling rate : 44.1 KHz
Bit depth : 16 bits
Compression mode : Lossy
Stream size : 61.7 MiB (5%)
Default : Yes
Forced : No


Трекер:  [ 11-Мар-2018 01:18 ]

  

Скачать .torrent

Размер .torrent файла 24 KB


Размер: 4.58 GB
Хэш (hash) релиза: 581289d7e50bc758455079554040461d0fbca8b8
Подписка на обновления:

Торренты, похожие на Дорога из жёлтого кирпича Серии: 1-4 из 4 скачать торрент

Форум Название Автор Размер S L Добавлен
Российские сериалы ·· Дорога из жёлтого кирпича / Серии: 1-4 из 4 (Екатерина Шагалова) [2017, мелодрама, WEBRip] Galfimbul 25345064962.36 GB 0 0 1520720496

01:21

11-Мар-18

Российские сериалы ·· Дорога из жёлтого кирпича / Серии: 1-4 из 4 (Екатерина Шагалова) [2017,мелодрама, SATRip-AVC] aleksan55 22488289402.09 GB 0 0 1520707380

21:43

10-Мар-18

Еще никто не оставлял запись к записи скачать торрент Дорога из жёлтого кирпича Серии: 1-4 из 4 . Будь первым!

!Обратная связь