Once Upon A Time S04 Season 4 Complete 480p HDTV x264 AAC E-Subs MP4 | Alone - Season 5 | Thriller, Drama, British Chatroom - Willkommen im Anti-Social Network Abspielen Abspielen 93 Min. | Großbritannien | 2010 | FSK 16 Britischer Psychothriller über eine Gruppe internetsüchtiger Teenager und die dunkle Seite der virtuellen Welt. Meine Liste

Скачать через торрент музыку Genocyber II Takehito Nakazawa бесплатно без регистрации torrent

Статистика раздачи
Размер:  208 MB   |    Зарегистрирован:  3 месяца 8 дней   |    .torrent скачан:  10 раз   |   
Раздают:  1  
   
загрузка...
 
Автор Сообщение

Galfimbul

avatar Galfimbul


Genocyber II
Жанр: Soundtrack
Композитор: Takehito Nakazawa
Год выпуска диска: 1994
Издатель (лейбл): APPOLON INC. TOKYO JAPAN
Номер по каталогу: APCM-5038
Страна-производитель диска: Japan

Аудиокодек: FLAC (*.flac)
Тип рипа: image+.cue
Битрейт аудио: lossless
Продолжительность: 00:36:19

Источник: собственный рип
Наличие сканов в содержимом раздачи: нет

Треклист:
01. Alexandria [0:05:03.67]
02. Vajranoid [0:03:15.53]
03. Ark De Grande City [0:05:39.72]
04. Illusion (Ryuu And Meru) [0:02:20.68]
05. Banquet [0:01:36.37]
06. Confrontation [0:02:39.35]
07. Myth [0:02:50.68]
08. Because I'm Coming To See You (Vocal) [0:04:34.42]
09. Instead Of Standing Here Alone (Original Karaoke) [0:04:41.08]
10. Fairy Dreamin' (Original Karaoke) [0:03:35.45]
Exact Audio Copy V1.0 beta 4 from 7. December 2014

EAC extraction logfile from 10. March 2018, 12:38

Takehito Nakazawa / Genocyber Original Soundtrack II

Used drive : MATSHITABD-CMB UJ172 S Adapter: 1 ID: 0

Read mode : SecureUtilize accurate stream : YesDefeat audio cache : YesMake use of C2 pointers : No

Read offset correction : 103Overread into Lead-In and Lead-Out : NoFill up missing offset samples with silence : YesDelete leading and trailing silent blocks : NoNull samples used in CRC calculations : YesUsed interface : Native Win32 interface for Win NT & 2000

Used output format : User Defined EncoderSelected bitrate : 768 kBit/sQuality : HighAdd ID3 tag : NoCommand line compressor : C:\Program Files (x86)\Exact Audio Copy\Flac\flac.exeAdditional command line options : -7 -V -T "Date=%year%" -T "Genre=%genre%" -T "COMMENT=ripped by sewerok®" %source%

TOC of the extracted CD

Track | Start | Length | Start sector | End sector --------------------------------------------------------- 1 | 0:00.00 | 5:03.67 | 0 | 22791 2 | 5:03.67 | 3:15.53 | 22792 | 37469 3 | 8:19.45 | 5:39.72 | 37470 | 62966 4 | 13:59.42 | 2:20.68 | 62967 | 73534 5 | 16:20.35 | 1:36.37 | 73535 | 80771 6 | 17:56.72 | 2:39.35 | 80772 | 92731 7 | 20:36.32 | 2:50.68 | 92732 | 105549 8 | 23:27.25 | 4:34.42 | 105550 | 126141 9 | 28:01.67 | 4:41.08 | 126142 | 147224 10 | 32:43.00 | 3:35.45 | 147225 | 163394

Range status and errors

Selected range

Filename E:\Genocyber Original Soundtrack II [1994](APOLLON INC. APCM-5038 Japan)\Takehito Nakazawa - Genocyber Original Soundtrack II.wav

Peak level 100.0 % Extraction speed 3.6 X Range quality 99.9 % Test CRC 0FEF21AF Copy CRC 0FEF21AF Copy OK

No errors occurred

AccurateRip summary

Track 1 cannot be verified as accurate (confidence 2) [3AFE4C3B], AccurateRip returned [B9D12A7A] (AR v2)Track 2 cannot be verified as accurate (confidence 2) [00E8E34F], AccurateRip returned [2F874846] (AR v2)Track 3 cannot be verified as accurate (confidence 2) [2AE54633], AccurateRip returned [726306B5] (AR v2)Track 4 cannot be verified as accurate (confidence 2) [24768FE3], AccurateRip returned [E77F0C70] (AR v2)Track 5 cannot be verified as accurate (confidence 2) [AE5DBB3B], AccurateRip returned [0AD1396F] (AR v2)Track 6 cannot be verified as accurate (confidence 2) [4238FCA0], AccurateRip returned [42E50D1C] (AR v2)Track 7 cannot be verified as accurate (confidence 2) [90BE99A2], AccurateRip returned [7A1FEF50] (AR v2)Track 8 cannot be verified as accurate (confidence 2) [5FF9E6E7], AccurateRip returned [F69AC8BE] (AR v2)Track 9 cannot be verified as accurate (confidence 2) [4B428808], AccurateRip returned [D1CA5719] (AR v2)Track 10 cannot be verified as accurate (confidence 2) [589AD8E4], AccurateRip returned [FAA93BD2] (AR v2)

No tracks could be verified as accurateYou may have a different pressing from the one(s) in the database

End of status report

---- CUETools DB Plugin V2.1.5

[CTDB TOCID: h6SXpLgy2j4s3LM4Q2iNrNsEHzM-] database access error: Der Remotename konnte nicht aufgelöst werden: 'db.cuetools.net'

==== Log checksum DCC7E9E6623B306F25108DCE061860EA7A6B475800F4E6DE6C2182FEBC049D1F ====


Трекер:  [ 10-Мар-2018 23:42 ]

  

Скачать .torrent

Размер .torrent файла 17 KB


Размер: 208 MB
Хэш (hash) релиза: 340ed8b8735be414ff52a07081976e22b9b4868f

Еще никто не оставлял запись к записи скачать торрент Genocyber II Takehito Nakazawa . Будь первым!

!Обратная связь