Sobre SubDivX | Watch movie | Avengers: Infinity War

Скачать через торрент музыку Genocyber I Takehito Nakazawa, Hiroaki Kagoshima бесплатно без регистрации torrent

Статистика раздачи
Размер:  316 MB   |    Зарегистрирован:  3 месяца 9 дней   |    .torrent скачан:  8 раз   |   
Раздают:  1  
   
загрузка...
 
Автор Сообщение

Galfimbul

avatar Galfimbul


Genocyber I

Жанр: Soundtrack
Композитор: Takehito Nakazawa, Hiroaki Kagoshima
Год выпуска диска: 1994
Издатель (лейбл): APPOLON INC. TOKYO JAPAN
Номер по каталогу: APCM-5034
Страна-производитель диска: Japan

Аудиокодек: FLAC (*.flac)
Тип рипа: image+.cue
Битрейт аудио: lossless
Продолжительность: 00:50:02

Источник: собственный рип
Наличие сканов в содержимом раздачи: да

Треклист:
01. Fairy Dreamin' (Vocal) [0:03:43.32]
02. Vajra - Wind From The Virtual World [0:05:03.50]
03. Psycho Shock [0:03:13.60]
04. Twins - Elaine And Diana [0:03:38.43]
05. Encounter [0:04:13.27]
06. Tragedy [0:03:48.18]
07. Assault [0:04:07.10]
08. Awakening [0:03:20.60]
09. Fusion [0:05:09.22]
10. Genocide [0:04:22.20]
11. Genocyber [0:04:38.48]
12. Instead Of Standing Here Alone (Vocal) [0:04:42.45]
Exact Audio Copy V1.0 beta 3 from 29. August 2011

EAC extraction logfile from 6. September 2013, 19:45

Takehito Nakazawa And Hiroaki Kagoshima / Genocyber Original Soundtrack 1

Used drive : TSSTcorpCD/DVDW TS-L632D Adapter: 0 ID: 0

Read mode : SecureUtilize accurate stream : YesDefeat audio cache : YesMake use of C2 pointers : No

Read offset correction : 6Overread into Lead-In and Lead-Out : NoFill up missing offset samples with silence : YesDelete leading and trailing silent blocks : NoNull samples used in CRC calculations : YesUsed interface : Native Win32 interface for Win NT & 2000

Used output format : User Defined EncoderSelected bitrate : 896 kBit/sQuality : HighAdd ID3 tag : NoCommand line compressor : C:\Program Files (x86)\Exact Audio Copy\Flac\flac.exeAdditional command line options : -8 -V -T "Date=%year%" -T "Genre=%genre%" -T "COMMENT=ripped by sewerok®" %source%

TOC of the extracted CD

Track | Start | Length | Start sector | End sector --------------------------------------------------------- 1 | 0:00.00 | 3:43.32 | 0 | 16756 2 | 3:43.32 | 5:03.50 | 16757 | 39531 3 | 8:47.07 | 3:13.60 | 39532 | 54066 4 | 12:00.67 | 3:38.43 | 54067 | 70459 5 | 15:39.35 | 4:13.27 | 70460 | 89461 6 | 19:52.62 | 3:48.18 | 89462 | 106579 7 | 23:41.05 | 4:07.10 | 106580 | 125114 8 | 27:48.15 | 3:20.60 | 125115 | 140174 9 | 31:09.00 | 5:09.22 | 140175 | 163371 10 | 36:18.22 | 4:22.20 | 163372 | 183041 11 | 40:40.42 | 4:38.48 | 183042 | 203939 12 | 45:19.15 | 4:42.45 | 203940 | 225134

Range status and errors

Selected range

Filename E:\Genocyber Original Soundtrack 1 [1994](APOLLON INC. AMCP-5034 Japan)\Takehito Nakazawa And Hiroaki Kagoshima - Genocyber Original Soundtrack 1.wav

Peak level 100.0 % Extraction speed 1.7 X Range quality 100.0 % Test CRC 296E225D Copy CRC 296E225D Copy OK

No errors occurred

AccurateRip summary

Track 1 cannot be verified as accurate (confidence 2) [117DD4DC], AccurateRip returned [F782B74A] (AR v2)Track 2 cannot be verified as accurate (confidence 2) [08153B47], AccurateRip returned [697EF5DE] (AR v2)Track 3 cannot be verified as accurate (confidence 2) [1F4DF699], AccurateRip returned [804F767A] (AR v2)Track 4 cannot be verified as accurate (confidence 2) [ACCAB452], AccurateRip returned [A7F82C7C] (AR v2)Track 5 cannot be verified as accurate (confidence 2) [2EB56EBA], AccurateRip returned [C921A178] (AR v2)Track 6 cannot be verified as accurate (confidence 2) [3EA9462F], AccurateRip returned [D00E76AA] (AR v2)Track 7 cannot be verified as accurate (confidence 2) [FD7CB454], AccurateRip returned [4620EC4E] (AR v2)Track 8 cannot be verified as accurate (confidence 2) [C62D83F0], AccurateRip returned [3651B501] (AR v2)Track 9 cannot be verified as accurate (confidence 2) [BE094400], AccurateRip returned [FDFD69E2] (AR v2)Track 10 cannot be verified as accurate (confidence 2) [200B8378], AccurateRip returned [F1AF1A14] (AR v2)Track 11 cannot be verified as accurate (confidence 2) [417544FB], AccurateRip returned [F4F5EA41] (AR v2)Track 12 cannot be verified as accurate (confidence 2) [DE22898B], AccurateRip returned [EDB5E537] (AR v2)

No tracks could be verified as accurateYou may have a different pressing from the one(s) in the database

End of status report

==== Log checksum C90D8FBA4D0A26AC7154C1B461845857ECCC250924F9E494B4B463A71B1DDD5B ====


Трекер:  [ 10-Мар-2018 23:12 ]

  

Скачать .torrent

Размер .torrent файла 13 KB


Размер: 316 MB
Хэш (hash) релиза: 193ded0a64a510ac77f08d8468e85e95d1e74f3c

Еще никто не оставлял запись к записи скачать торрент Genocyber I Takehito Nakazawa, Hiroaki Kagoshima . Будь первым!

!Обратная связь