Watch movie | Rachael L. Hollingsworth | Jake 2.0

Скачать через торрент Он - сильнейший учитель! Denpa Kyoushi бесплатно Аниме Все серии на русском torrent

Статистика раздачи
Размер:  141 GB   |    Зарегистрирован:  3 месяца 7 дней   |    .torrent скачан:  5 раз   |   
Раздают:  1  
   
загрузка...
 
Автор Сообщение

Galfimbul

avatar Galfimbul


Он - сильнейший учитель! / Denpa Kyoushi

Год выпуска: 2015
Страна: Япония
Жанр: комедия, повседневность
Тип: TV
Продолжительность: 24 эп. по 24 мин.
Озвучка:

Двухголосая (муж/жен) от Inspector Gadjet & Гамлетка Цезаревна (AniDub)
Двухголосая (муж/жен) от Mustadio & Mosa эп. 1-6 / Одноголосая (муж) от Mustadio эп. 7-24 (Anifilm)
Двухголосая (муж/жен) от GreyMoon & Aska (SHIZA)

Русские субтитры: есть (отдельным файлом, формат .ass)
Перевод:

Gerale, Komugi-chan, Ryuji

Хардсаб: Нет
Режиссер: Сато Масато
Студия: A-1 Pictures Inc.

Описание: Новое время – новые герои-учителя. Теперь, чтобы понравиться старшеклассникам и завоевать у них авторитет, не обязательно быть брутальным стриженым мачо верхом на мотоцикле. Как доказал гениальный затворник Дзюнъитиро Кагами, вполне сойдет костлявый и патлатый отаку в очках и лабораторном халате сомнительной свежести. Одно остается неизменным – нужно быть честным, искренним, любить детей и со всей силой, умением и смекалкой выступать против скуки, косности и лицемерия, что царят, увы, не только в японских школах!

И пускай 24-летний Кагами объясняет каждому встречному свой принцип «делаю, что хочу» - парень просто забыл, что наш мир полон женщин, а уж они любого заставят хотеть того, что нужно! Верный поклонник игр, аниме и манги встал на трудовую стезю после настоятельной просьбы младшей сестры, а после первых успехов его заметила Коёми Хиираги, директор частной школы – и участь восходящей звезды педагогики оказалась решена. Кстати, Коёми, взявшая под крыло молодого сэнсэя, тоже считает, что скука – злейший враг японского школьника. Превзойдет ли подобный дуэт Песталоцци и Макаренко – мы скоро узнаем… если доживем!
© Hollow, World Art

Качество: Blu-Ray Remux
Формат: MKV
Видео кодек: AVC
Аудио кодек: FLAC
Видео: 1920x1080 (16:9) 23,976 fps ~31,7 Mbps 8bit
Аудио:
Jap FLAC, 48000Hz, ~1484 Kbps, 2ch
RUS 1 (ext) AAC, 48000Hz, ~256 Kbps, 2ch
RUS 2-3 (ext) AAC, 48000Hz, ~192 Kbps, 2ch

Чаптеры присутствуют.
01. Теперь я учитель в старшей школе
02. Законы общества
03. Погоня в Акихабаре
04. Настоящая гоничная
05. Монстр академии Ичо
06. Занятное зрелище
07. Секрет красивой девушки
08. Прогульщица - выдающийся Мастер
09. Девушка в игре
10. Меланхолия Котаро
11. Внешний мир
12. Люси против Первого
13. Профессор из Женевы
14. Девушка-оценщица
15. Жених - Король игр
16. Возьмите меня в загробный мир
17. Переполох в первый день
18. Гордость геймера
19. Уличные банды
20. Идолы-близнецы
21. Появление Семьи рейнджеров!
22. Замок Джуничиро!
23. Загадочная практикантка!
24. Моя образовательная политика!
Общее
Уникальный идентификатор : 306014690895561732233369208663486066469 (0xE638492122002CBB6F92A35817996F25)
Полное имя : Z:\Anime Release - working\Denpa Kyoushi\[anti-raws]Denpa Kyoushi ep.01[BDRemux].mkv
Формат : Matroska
Версия формата : Version 4 / Version 2
Размер файла : 5,69 Гбайт
Продолжительность : 23 м. 53 с.
Режим общего битрейта : Переменный
Общий поток : 34,1 Мбит/сек
Дата кодирования : UTC 2018-03-09 11:55:17
Программа кодирования : mkvmerge v20.0.0 ('I Am The Sun') 64-bit
Библиотека кодирования : libebml v1.3.5 + libmatroska v1.4.8

Видео
Идентификатор : 2
Формат : AVC
Формат/Информация : Advanced Video Codec
Профиль формата : [email protected]
Настройки формата : CABAC / 4 Ref Frames
Параметр CABAC формата : Да
Параметр RefFrames формата : 4 кадра
Идентификатор кодека : V_MPEG4/ISO/AVC
Продолжительность : 23 м. 53 с.
Вид битрейта : Переменный
Битрейт : 32,6 Мбит/сек
Максимальный битрейт : 40,0 Мбит/сек
Ширина : 1920 пикселей
Высота : 1080 пикселей
Соотношение сторон : 16:9
Режим частоты кадров : Постоянный
Частота кадров : 23,976 (24000/1001) кадра/сек
Цветовое пространство : YUV
Субдискретизация насыщенности : 4:2:0
Битовая глубина : 8 бит
Тип развёртки : Прогрессивная
Бит/(Пиксели*Кадры) : 0.656
Размер потока : 5,44 Гбайт (96%)
Default : Нет
Forced : Нет

Аудио
Идентификатор : 1
Формат : FLAC
Формат/Информация : Free Lossless Audio Codec
Идентификатор кодека : A_FLAC
Продолжительность : 23 м. 53 с.
Вид битрейта : Переменный
Битрейт : 1483 Кбит/сек
Каналы : 2 канала
Расположение каналов : Front: L R
Частота : 48,0 КГц
Частота кадров : 11,719 кадров/сек (4096 SPF)
Битовая глубина : 24 бит
Размер потока : 253 Мбайт (4%)
Библиотека кодирования : libFLAC 1.2.1 (UTC 2007-09-17)
Язык : Japanese
Default : Да
Forced : Нет

Меню
00:00:00.000 : en:00:00:00.000
00:01:25.127 : en:00:01:25.127
00:02:55.050 : en:00:02:55.050
00:09:05.044 : en:00:09:05.044
00:21:50.976 : en:00:21:50.976
00:23:21.025 : en:00:23:21.025
...4982807
...5008877
--HDTVRip

...5401880
--BDRip

Эта раздача - BDRemux


Трекер:  [ 10-Мар-2018 21:01 ]

  

Скачать .torrent

Размер .torrent файла 188 KB


Размер: 141 GB
Хэш (hash) релиза: f627606bf1fb1486444fd2ab62595bab1bb6309e
Подписка на обновления:

Торренты, похожие на Он - сильнейший учитель! Denpa Kyoushi скачать торрент

Форум Название Автор Размер S L Добавлен
Аниме | HD Rips ·· Он - сильнейший учитель! / Denpa Kyoushi (Сато Масато) [TV] [6 из 24] [без хардсаба] [RUS(ext), JAP+SUB] [2015, комедия, повседневность, BDRip] [720p] Galfimbul 49132786524.58 GB 0 0 1494619672

23:07

12-Май-17

Аниме | HD Rips ·· Он - сильнейший учитель! / Denpa Kyoushi [TV] [01 из 13] [Без хардсаба] [RUS(int), JAP, SUB] [2015 г., комедия, HDTVRip] [720p] Galfimbul 375946421359 MB 0 0 1428729443

08:17

11-Апр-15

Манга ·· Takeshi Azuma / Адзума Такэси - Он сильнейший учитель! / Denpa Kyoushi [manga] [1-67] [2011 г., повседневность, комедия, школа, романтика] [incomplete] Polarnik 633120230604 MB 0 0 1366965935

11:45

26-Апр-13

Аниме | HD Rips ·· Он - сильнейший учитель! / Чокнутый учитель-отаку / Denpa Kyoushi [TV] [01-14 из 24] [Без хардсаба] [RUS(int), JAP, SUB] [2015 г., комедия, HDTVRip] [720p] Galfimbul 58026707785.4 GB 0 0 1437172300

01:31

18-Июл-15

Аниме | Rips ·· Он - сильнейший учитель! / Чокнутый учитель-отаку / Denpa Kyoushi / Ultimate Otaku Teacher [TV] [06 из 13] [Без хардсаба] [RUS(ext), JAP, SUB] [2015 г., Комедия, Романтика, Школа, HDTVRip] [720p] Galfimbul 28371667092.64 GB 0 0 1432051219

19:00

19-Май-15

Еще никто не оставлял запись к записи скачать торрент Он - сильнейший учитель! Denpa Kyoushi . Будь первым!

!Обратная связь