ダウンロード APK | Sicario (2015) RATING 7.6 / 10 QUALITY | ReCore Definitive Edition

Скачать порно через торрент [WankzVR.com] Jessa Rhodes, Madelyn Monroe UnionPeer.org бесплатно онлайн HD качество

Скачать новое порно 2015, 2014 новинки через торрент UnionPeer.org

Порно торрент бесплатно ЮнионПир.орг

Статистика раздачи
Размер:  3.92 GB   |    Зарегистрирован:  5 месяцев 10 дней   |    .torrent скачан:  249 раз   |   
Раздают:  1  
   
загрузка...
 
Автор Сообщение

Galfimbul

avatar Galfimbul


Имя актрисы: Jessa Rhodes, Madelyn Monroe
Название ролика: Slutty Nurses
Подсайт и сайт: WankzVR.com

Год производства: 2016 г.
Жанр: Big Cocks, Big Tits, Blonde, Blowjob, College, Cosplay, Cowgirl, Doggy Style, Facial Cumshot, FFM, Handjob, Kissing, Missionary, Cum in Mouth, Reverse Cowgirl, Threesomes
Продолжительность: 39:29

Описание: Poor you! You''re a bed-ridden patient who''s in dire need of some sexual healing! Lucky for you, smoking-hot blonde nurses, Jessa Rhodes and Madelyn Monroe are taking patient care very seriously and will do anything and everything to make sure you make a full recovery! Don your VR headset and slip into the shoes of the luckiest patient ever and watch and feel and experience these gorgeous girls slide off your hospital gown and start administering mouth to cock resuscitation! Don''t miss this kinky threesome in full-blown virtual porn reality! Just what the doctor ordered!

Тип HD видео: 1600p
Тип устройства: Samsung Gear VR
Тип 3D: SideBySide
Формат видео: MP4
Видео: H264 3200x1600 29.97fps 13868kbps
Аудио: AAC 48000Hz stereo 317kbps
General
Complete name : wankzvr-slutty-nurses-180_180x180_3dh_LR.mp4
Format : MPEG-4
Codec ID : M4V
File size : 3.92 GiB
Duration : 39mn 29s
Overall bit rate mode : Variable
Overall bit rate : 14.2 Mbps
Encoded date : UTC 2016-04-04 17:19:29
Tagged date : UTC 2016-04-04 17:19:29

Video
ID : 1
Format : AVC
Format/Info : Advanced Video Codec
Format profile : [email protected]
Format settings, CABAC : Yes
Format settings, ReFrames : 2 frames
Codec ID : avc1
Codec ID/Info : Advanced Video Coding
Duration : 39mn 29s
Bit rate mode : Variable
Bit rate : 13.9 Mbps
Maximum bit rate : 15.4 Mbps
Width : 3 200 pixels
Height : 1 600 pixels
Display aspect ratio : 2.000
Frame rate mode : Constant
Frame rate : 29.970 fps
Color space : YUV
Chroma subsampling : 4:2:0
Bit depth : 8 bits
Scan type : Progressive
Bits/(Pixel*Frame) : 0.090
Stream size : 3.83 GiB (98%)
Encoded date : UTC 2016-04-04 17:19:29
Tagged date : UTC 2016-04-04 17:19:29

Audio
ID : 2
Format : AAC
Format/Info : Advanced Audio Codec
Format profile : LC
Codec ID : 40
Duration : 39mn 29s
Bit rate mode : Variable
Bit rate : 320 Kbps
Maximum bit rate : 324 Kbps
Channel(s) : 2 channels
Channel positions : Front: L R
Sampling rate : 48.0 KHz
Compression mode : Lossy
Stream size : 89.7 MiB (2%)
Encoded date : UTC 2016-04-04 17:19:29
Tagged date : UTC 2016-04-04 17:19:29


Трекер:  [ 10-Мар-2018 20:20 ]

  

Скачать .torrent

Размер .torrent файла 20 KB


Размер: 3.92 GB
Хэш (hash) релиза: 57b94f4c891267ca820708da921ae92bfabd6bd2

Еще никто не оставлял запись к записи скачать торрент [WankzVR.com] Jessa Rhodes, Madelyn Monroe . Будь первым!

!Обратная связь