Episode 4133 | Evil Genius: The True Story of America's Most Diabolical Bank Heist - Season 1 | The Originals Saison 5 Streaming

Скачать через торрент Твоё имя Kimi no Na wa бесплатно Аниме Все серии на русском torrent

Статистика раздачи
Размер:  1.47 GB   |    Зарегистрирован:  3 месяца 8 дней   |    .torrent скачан:  54 раза   |   
Раздают:  1  
   
загрузка...
 
Автор Сообщение

Galfimbul

avatar Galfimbul


Твоё имя / Kimi no Na wa / Your Name

Страна: Япония
Год выпуска: 2016
Жанр: романтика, драма, школа

Продолжительность: 01:46:35
Режиссер: Синкай Макото / Makoto Shinkai
Студия: Comix Wawe

Описание: История о парне из Токио и девушке из провинции, которые обнаруживают, что между ними существует странная и необъяснимая связь. Во сне они меняются телами и проживают жизни друг друга. Но однажды эта способность исчезает так же внезапно, как появилась. Таки решает во что бы то ни стало отыскать Мицуху, но способны ли они узнать друг друга в реальной жизни...?



Качество: BDRip (Исходник BDRemux 1080p)
Тип релиза: без хардсаба, без линковки
Формат видео: AVI

Видео: XviD 73, 720x400, (16:9), 23,976 fps, 1521 Кбит/с, 8 бит
Аудио: Русский (АС3, 6 ch (Front: L C R, Side: L R, LFE), 48,0 KHz, 448 Kbps) Юрий Сербин
ОбщееПолное имя : H:\Фильмы на трекер\Твоё имя (романтика, драма, школа 2016 год).aviФормат : AVIФормат/Информация : Audio Video InterleaveРазмер файла : 1,47 ГбайтПродолжительность : 1 ч. 46 м.Общий поток : 1979 Кбит/секПрограмма кодирования : VirtualDubMod 1.5.10.2 (build 2540/release)Библиотека кодирования : VirtualDubMod build 2540/release

ВидеоИдентификатор : 0Формат : MPEG-4 VisualПрофиль формата : Advanced [email protected]Параметр BVOP формата : 2Параметр QPel формата : НетПараметр GMC формата : Без точки переходаПараметр матрицы формата : ВыборочнаяИдентификатор кодека : XVIDИдентификатор кодека/Подсказка : XviDПродолжительность : 1 ч. 46 м.Битрейт : 1521 Кбит/секШирина : 720 пикселейВысота : 400 пикселейСоотношение сторон : 16:9Частота кадров : 23,976 (23976/1000) кадра/секЦветовое пространство : YUVСубдискретизация насыщенности : 4:2:0Битовая глубина : 8 битТип развёртки : ПрогрессивнаяМетод сжатия : С потерямиБит/(Пиксели*Кадры) : 0.220Размер потока : 1,13 Гбайт (77%)Библиотека кодирования : XviD 73

АудиоИдентификатор : 1Формат : AC-3Формат/Информация : Audio Coding 3Расширение режима : CM (complete main)Параметр Endianness формата : BigИдентификатор кодека : 2000Продолжительность : 1 ч. 46 м.Вид битрейта : ПостоянныйБитрейт : 448 Кбит/секКаналы : 6 каналовРасположение каналов : Front: L C R, Side: L R, LFEЧастота : 48,0 КГцЧастота кадров : 31,250 кадров/сек (1536 spf)Метод сжатия : С потерямиРазмер потока : 342 Мбайт (23%)Выравнивание : Разделение по промежуткамПродолжительность промежутка : 42 мс. (1,00 видеокадр)Время предзагрузки промежутка : 500 мс.


Трекер:  [ 10-Мар-2018 14:01 ]

  

Скачать .torrent

Размер .torrent файла 15 KB


Размер: 1.47 GB
Хэш (hash) релиза: 200342d0676733c887bd43386023b1aace4fde3a
Подписка на обновления:

Торренты, похожие на Твоё имя Kimi no Na wa скачать торрент

Форум Название Автор Размер S L Добавлен
Аниме | Rips ·· Твоё имя / Kimi no Na wa / Your Name (Макото Синкай) [Movie] [Без хардсаба] [RUS(int)] [2016, Романтика, драма, фантастика, школа, SATRip] [HWP] Galfimbul 894376248853 MB 0 0 1518651045

02:30

15-Фев-18

Аниме | HD Rips ·· Твоё имя / Kimi no Na wa. / Your Name. (Макото Синкай) [Movie] [Без хардсаба] [RUS(ext),JAP+SUB] [2016, романтика, драма, школа, сверхъестественное, BDRemux] [2160p] Galfimbul 5432788370350.6 GB 0 0 1514876498

10:01

2-Янв-18

Аниме | Rips ·· Твоё имя / Kimi no Na wa. / Your Name [Movie] [Без хардсаба] [RUS(int), JAP+SUB] [2016, романтика, драма, BDRip] [HWP] Galfimbul 18845597311.76 GB 0 0 1503342141

22:02

21-Авг-17

Аниме | HD Rips ·· Твоё имя / Kimi no Na wa. / Your Name. (Макото Синкай) [Movie] [Без хардсаба] [RUS(ext),JAP+SUB] [2016, романтика, драма, школа, сверхъестественное, BDRip] [2160p] Galfimbul 2228626988820.76 GB 0 0 1502110910

16:01

7-Авг-17

Аниме | Rips ·· Твоё имя / Kimi no Na wa / Your Name (Макото Синкай) [Movie] [Без хардсаба] [RUS(int), JAP] [2016, романтика, драма, школа, сверхъестественное, BDRip] [HWP] Galfimbul 13385461761.25 GB 0 0 1501164139

17:02

27-Июл-17

Аниме | Rips ·· Твоё имя / Kimi no Na wa / Your Name (Макото Синкай) [Movie] [Без хардсаба] [RUS(int), JAP] [2016, романтика, драма, школа, сверхъестественное, WEBRip] Galfimbul 24353116522.27 GB 0 0 1501164135

17:02

27-Июл-17

Аниме | Rips ·· Твоё имя / Kimi no Na wa. / Your Name. (Макото Синкай) [Movie] [Без хардсаба] [RUS(ext),JAP+SUB] [2016, романтика, драма, школа, сверхъестественное, BDRemux] [1080p] Galfimbul 2776574660725.86 GB 0 0 1501153355

14:02

27-Июл-17

Аниме | Rips ·· Твоё имя / Kimi no Na wa. / Your Name. (Макото Синкай) [Movie] [Без хардсаба] [RUS(ext),JAP+SUB] [2016, романтика, драма, школа, сверхъестественное, BDRip] [720p] Galfimbul 24267434232.26 GB 0 0 1501056140

11:02

26-Июл-17

Аниме | HD Rips ·· Твоё имя / Kimi no Na wa. / Your Name. (Макото Синкай) [Movie] [RUS(ext),JAP+SUB] [2016, романтика, драма, школа, сверхъестественное, BDRip] [1080p] Galfimbul 36020803073.35 GB 0 0 1501043508

07:31

26-Июл-17

Аниме | Rips ·· Твоё имя / Kimi no Na wa. / Your Name. (Макото Синкай) [Movie] [RUS(ext),JAP+SUB] [2016, романтика, драма, школа, сверхъестественное, BDRip] [1080p] Galfimbul 36730313143.42 GB 0 0 1501043487

07:31

26-Июл-17

Аниме | HD Rips ·· Твоё имя / Kimi no Na wa. / Your Name. (Макото Синкай) [Movie] [RUS(ext),JAP+SUB] [2016, романтика, драма, школа, сверхъестественное, BDRemux] [1080p] Galfimbul 2926596212327.26 GB 0 0 1500969724

11:02

25-Июл-17

Аниме | HD Rips ·· Твоё имя / Kimi no Na wa. / Your Name. (Макото Синкай) [Movie] [RUS(ext),JAP+SUB] [2016, романтика, драма, школа, сверхъестественное, BDRip] [720p] Galfimbul 23569881702.2 GB 0 0 1500967854

10:30

25-Июл-17

Аниме | HD Rips ·· Твоё имя / Kimi no Na wa / Your Name (Макото Синкай) [Movie] [Хардсаб] [RUS(int), JAP] [2016, романтика, драма, школа, сверхъестественное, WEBRip] [720p] Galfimbul 1033077068985 MB 0 0 1486423606

02:26

7-Фев-17

Аниме | Rips ·· Твоё имя / Kimi no Na wa / Your Name (Макото Синкай) [Movie] [Хардсаб] [RUS(int),JAP] [2016, романтика, драма, школа, сверхъестественное, DVDRip] Galfimbul 850082759811 MB 0 0 1481993787

19:56

17-Дек-16

Аниме | Rips ·· Твоё имя / Kimi no Na wa / Your Name [Movie] [Хардсаб] [RUS(int), JAP+SUB] [2016 г., романтика, драма, школа, сверхъестественное, DVDRip] [480p] Galfimbul 891909969851 MB 0 0 1473793271

22:01

13-Сен-16

Еще никто не оставлял запись к записи скачать торрент Твоё имя Kimi no Na wa . Будь первым!

!Обратная связь