Las Voces | Watch show | Fine Homebuilding Magazine – Issue 194, April-May 2008

Скачать порно через торрент [WankzVR.com] Angel Smalls, Rachel Roxxx UnionPeer.org бесплатно онлайн HD качество

Скачать новое порно 2015, 2014 новинки через торрент UnionPeer.org

Порно торрент бесплатно ЮнионПир.орг

Статистика раздачи
Размер:  3.9 GB   |    Зарегистрирован:  5 месяцев 6 дней   |    .torrent скачан:  145 раз   |   
Раздают:  1   Качают:  2  
   
загрузка...
 
Автор Сообщение

Galfimbul

avatar Galfimbul




Имя актрисы: Angel Smalls, Rachel Roxxx
Название ролика: Real Estate
Сайт: WankzVR.com

Год производства: 2016 г.
Жанр: Big Cocks, Big Tits, Blonde, Blowjob, College, Cowgirl, FFM, Handjob, MILF, Cum in Mouth, Reverse Cowgirl, Threesomes
Продолжительность: 39:02

Описание: Get ready for the naughtiest virtual house tour ever! Got your VR headset strapped in? Because sexy real estate agent, Rachel Roxxx is going to make you an offer you can''t refuse! Follow her around this palatial property and marvel at the high ceilings and decor in full 180 degree FOV. Go ahead, relax and kick your shoes off and make yourself comfortable in the master bedroom as teen Angel Smalls starts unzipping your fly and sucking your dick! You won''t believe how REAL this feels! Things get even hotter when Rachel finds you and decides to join in and make it a threesome! Watch these two hotties fight over your cock to see who gets fucked!

Тип HD видео: 1600p
Тип устройства: Samsung Gear VR
Тип 3D: SideBySide
Формат видео: MP4
Видео: H264 3200x1600 29.97fps 13981kbps
Аудио: AAC 48000Hz stereo 317kbps
General
Complete name : Wankzvr.com - Remaning video''s GearVR\WankzVR.com - Real Estate\wankzvr-real-estate-180_180x180_3dh_LR.mp4
Format : MPEG-4
Codec ID : M4V
File size : 3.90 GiB
Duration : 39mn 1s
Overall bit rate mode : Variable
Overall bit rate : 14.3 Mbps
Encoded date : UTC 2016-03-16 21:53:11
Tagged date : UTC 2016-03-16 21:53:11

Video
ID : 1
Format : AVC
Format/Info : Advanced Video Codec
Format profile : [email protected]
Format settings, CABAC : Yes
Format settings, ReFrames : 2 frames
Codec ID : avc1
Codec ID/Info : Advanced Video Coding
Duration : 39mn 1s
Bit rate mode : Variable
Bit rate : 14.0 Mbps
Maximum bit rate : 15.4 Mbps
Width : 3 200 pixels
Height : 1 600 pixels
Display aspect ratio : 2.000
Frame rate mode : Constant
Frame rate : 29.970 fps
Color space : YUV
Chroma subsampling : 4:2:0
Bit depth : 8 bits
Scan type : Progressive
Bits/(Pixel*Frame) : 0.091
Stream size : 3.81 GiB (98%)
Encoded date : UTC 2016-03-16 21:53:11
Tagged date : UTC 2016-03-16 21:53:11

Audio
ID : 2
Format : AAC
Format/Info : Advanced Audio Codec
Format profile : LC
Codec ID : 40
Duration : 39mn 1s
Bit rate mode : Variable
Bit rate : 320 Kbps
Maximum bit rate : 324 Kbps
Channel(s) : 2 channels
Channel positions : Front: L R
Sampling rate : 48.0 KHz
Compression mode : Lossy
Stream size : 88.6 MiB (2%)
Encoded date : UTC 2016-03-16 21:53:11
Tagged date : UTC 2016-03-16 21:53:11


Трекер:  [ 10-Мар-2018 12:40 ]

  

Скачать .torrent

Размер .torrent файла 20 KB


Размер: 3.9 GB
Хэш (hash) релиза: b59047f40ba5d927b4ce2e08daea8ade7fe6134a

Еще никто не оставлял запись к записи скачать торрент [WankzVR.com] Angel Smalls, Rachel Roxxx . Будь первым!

!Обратная связь