Light up My Life (Cantonese) - 你照亮我星球Light up My Life (Cantonese) | Champions | 28.04.1800:59 Uhr Playboy Special Digital Edition - Babes on Bikes 0 / 010.017 Hits VID P2P DDL 0 Kommentare

Скачать через торрент Принц-змея Hadí princ Фильм бесплатно в хорошем качестве torrent

Скачивайте на UnionPeer.org фильмы через торрент без регистрации. Новинки кино в хорошем качестве через торрент. На UnionPeer.org можно скачать через торрент фильмы 2014 и 2015 годов. Самые новые фильмы.

Скачать торрент Принц-змея Hadí princ бесплатно через .torrent фильм мультфильм сериал

Статистика раздачи
Размер:  301 MB   |    Зарегистрирован:  3 месяца 9 дней   |    .torrent скачан:  28 раз   |   
Раздают:  1  
   
загрузка...
 
Автор Сообщение

Galfimbul

avatar Galfimbul


Принц-змея / Hadí princ

Страна: Чехословакия
Жанр: мультфильм, сказка
Продолжительность: 00:17:37
Год выпуска: 1982
Перевод: не требуется
Русские субтитры: нет

Режиссёр: Зденек Винш / Zdeněk Vinš

Описание: Сказка про молодого принца, которого злая колдунья превратила в змею. Чары спадут только, когда кто-то поцелует его. Несчастный принц-змея находит приют в компании бродячих циркачей и начинает выступать вместе с ними...

Качество: TVRip
Формат: AVI
Видео: 2189 kbps, 704х528 (4:3), 25.000 fps, MPEG-4 Visual (XviD)
Аудио: 192 kbps, 44.1 kHz, 2 channels, MPEG Audio (MP3)
Субтитры: отсутствуют
GeneralComplete name : Hadi princ (1982).aviFormat : AVIFormat/Info : Audio Video InterleaveFile size : 301 MiBDuration : 17mn 37sOverall bit rate : 2 391 KbpsWriting application : VirtualDubMod 1.5.10.2 (build 2540/release)Writing library : VirtualDubMod build 2540/release

VideoID : 0Format : MPEG-4 VisualFormat profile : Advanced [email protected] settings, BVOP : 2Format settings, QPel : NoFormat settings, GMC : No warppointsFormat settings, Matrix : Default (H.263)Codec ID : XVIDCodec ID/Hint : XviDDuration : 17mn 37sBit rate : 2 189 KbpsWidth : 704 pixelsHeight : 528 pixelsDisplay aspect ratio : 4:3Frame rate : 25.000 fpsColor space : YUVChroma subsampling : 4:2:0Bit depth : 8 bitsScan type : ProgressiveCompression mode : LossyBits/(Pixel*Frame) : 0.236Stream size : 276 MiB (92%)Writing library : XviD 73

AudioID : 1Format : MPEG AudioFormat version : Version 1Format profile : Layer 3Codec ID : 55Codec ID/Hint : MP3Duration : 17mn 37sBit rate mode : ConstantBit rate : 192 KbpsChannel(s) : 2 channelsSampling rate : 44.1 KHzCompression mode : LossyStream size : 24.2 MiB (8%)Alignment : Split accross interleavesInterleave, duration : 40 ms (1.00 video frame)Interleave, preload duration : 500 ms


Трекер:  [ 10-Мар-2018 05:36 ]

  

Скачать .torrent

Размер .torrent файла 12 KB


Размер: 301 MB
Хэш (hash) релиза: db737153e515728323e606103b158bf390762054
Подписка на обновления:

Еще никто не оставлял запись к записи скачать торрент Принц-змея Hadí princ . Будь первым!

!Обратная связь