Stalingradas / Stalingrad (2013)
ChosenOne

Скачать через торрент Трон эльфов Throne of Elves Фильм бесплатно в хорошем качестве torrent

Скачивайте на UnionPeer.org фильмы через торрент без регистрации. Новинки кино в хорошем качестве через торрент. На UnionPeer.org можно скачать через торрент фильмы 2014 и 2015 годов. Самые новые фильмы.

Скачать торрент Трон эльфов Throne of Elves бесплатно через .torrent фильм мультфильм сериал

Статистика раздачи
Размер:  1.46 GB   |    Зарегистрирован:  1 месяц 9 дней   |    .torrent скачан:  167 раз   |   
Раздают:  1  
   
загрузка...
 
Автор Сообщение

Galfimbul

avatar Galfimbul


Трон эльфов / Throne of Elves

Страна: Китай, США
Жанр: мультфильм, фэнтези, приключения
Год выпуска: 2016
Продолжительность: 01:38:52
Перевод: Профессиональный (дублированный) | iTunes
Субтитры: нет
Оригинальная аудиодорожка: нет
Режиссер: И Гэ / Yi Ge, Сун Юэфэн / Yuefeng Song
В ролях: Эшли Боеттчер, Гилберт Боус, Гэвин Хаммон, Джули Натансон, Джон Олсон, Райан Поттер, Енн Рейтел, Кевин Майкл Ричардсон, Аника Нони Роуз, Стефани Ше
Описание: Юный воин Ламберт получает приглашение на свадьбу принцессы Страны Эльфов. Обрадованный возможностью вновь увидеться с молодой эльфийкой Лийей, он собирается в путь на воздушном корабле. В краю эльфов между тем не все спокойно: владычица Темных Эльфов Елена планирует нарушить свадебную церемонию, чтобы, застав врасплох придворных, захватить древний кристалл Черного Дракона.
Качество видео: BDRip | T_O_ELVES_2016_BLUEBIRD
Формат видео: AVI

Видео: 720x400 (1.80:1), 23.976 fps, XviD build 73 ~1714 kbps avg, 0.25 bit/pixel
Аудио: 48 kHz, AC3 Dolby Digital, 3/2 (L,C,R,l,r) + LFE ch, ~384 kbps
Сэмпл
Формат                                   : AVI
Формат/Информация                        : Audio Video Interleave
Размер файла                             : 1,46 Гбайт
Продолжительность                        : 1 ч. 38 м.
Общий поток                              : 2108 Кбит/сек
Программа кодирования                    : VirtualDubMod 1.5.10.3 | www.virtualdub-fr.org || (build 2550/release)
Библиотека кодирования                   : VirtualDubMod build 2550/release

Видео
Идентификатор                            : 0
Формат                                   : MPEG-4 Visual
Профиль формата                          : Advanced [email protected]
Настройки формата                        : BVOP1 / Custom Matrix
Параметр BVOP формата                    : 1
Параметр QPel формата                    : Нет
Параметр GMC формата                     : Без точки перехода
Параметр матрицы формата                 : Выборочная
Идентификатор кодека                     : XVID
Идентификатор кодека/Подсказка           : XviD
Продолжительность                        : 1 ч. 38 м.
Битрейт                                  : 1714 Кбит/сек
Ширина                                   : 720 пикселей
Высота                                   : 400 пикселей
Соотношение сторон                       : 16:9
Частота кадров                           : 23,976 (24000/1001) кадра/сек
Цветовое пространство                    : YUV
Субдискретизация насыщенности            : 4:2:0
Битовая глубина                          : 8 бит
Тип развёртки                            : Прогрессивная
Метод сжатия                             : С потерями
Бит/(Пиксели*Кадры)                      : 0.248
Размер потока                            : 1,18 Гбайт (81%)
Библиотека кодирования                   : XviD 73

Аудио
Идентификатор                            : 1
Формат                                   : AC-3
Формат/Информация                        : Audio Coding 3
Параметр Endianness формата              : Big
Идентификатор кодека                     : 2000
Продолжительность                        : 1 ч. 38 м.
Вид битрейта                             : Постоянный
Битрейт                                  : 384 Кбит/сек
Каналы                                   : 6 каналов
Расположение каналов                     : Front: L C R, Side: L R, LFE
Частота                                  : 48,0 КГц
Частота кадров                           : 31,250 кадров/сек (1536 SPF)
Битовая глубина                          : 16 бит
Метод сжатия                             : С потерями
Размер потока                            : 272 Мбайт (18%)
Выравнивание                             : Разделение по промежуткам
Продолжительность промежутка             : 42  мс. (1,00 видеокадр)
Время предзагрузки промежутка            : 500  мс.
ServiceKind/String                       : Complete Main


Трекер:  [ 09-Мар-2018 22:06 ]

  

Скачать .torrent

Размер .torrent файла 15 KB


Размер: 1.46 GB
Хэш (hash) релиза: 4201bb68534bab80dc8a137bd3262d1e51807c0d
Подписка на обновления:

Торренты, похожие на Трон эльфов Throne of Elves скачать торрент

Форум Название Автор Размер S L Добавлен
Мультфильмы до 2016 ·· Трон эльфов / Throne of Elves (И Гэ / Yi Ge, Сун Юэфэн / Yuefeng Song) [2016, Китай, США, мультфильм, фэнтези, приключения, BDRip 720p] Dub + Sub (Ger, Eng) + Original (Eng) Galfimbul 48422517934.51 GB 0 0 1520848896

13:01

12-Мар-18

Мультфильмы 2016-2018 (Новинки мультфильмов) ·· Трон эльфов / Throne of Elves (И Гэ / Yi Ge, Сун Юэфэн / Yuefeng Song) [2016, Китай, США, мультфильм, фэнтези, приключения, BDRip-HEVC 1080p] iTunes Galfimbul 77263150287.2 GB 0 0 1520758846

12:00

11-Мар-18

Мультфильмы 2016-2018 (Новинки мультфильмов) ·· Трон эльфов / Throne of Elves (И Гэ, Сун Юэфэн) [2016 г., мультфильм, фэнтези, приключения, BDRip] iTunes Galfimbul 15200092161.42 GB 0 0 1520600420

16:00

9-Мар-18

Мультфильмы 2016-2018 (Новинки мультфильмов) ·· Трон эльфов / Throne of Elves (И Гэ, Сун Юэфэн) [2016 г., мультфильм, фэнтези, приключения, BDRip 720p] DUB | iTunes Galfimbul 48422517934.51 GB 0 0 1518183215

16:33

9-Фев-18

Мультфильмы 2016-2018 (Новинки мультфильмов) ·· Гнездо дракона 2: Трон эльфов / Throne of Elves (И Гэ, Сун Юэфэн / Yi Ge, Yuefeng Song) [2016, мультфильм, фэнтези, приключения, семейный, BDRip 1080p] Galfimbul 1295500544212.07 GB 0 0 1506417019

12:10

26-Сен-17

Мультфильмы до 2016 ·· Гнездо дракона 2: Трон эльфов / Throne of Elves (И Гэ, Сун Юэфэн / Yi Ge, Yuefeng Song) [2016, мультфильм, фэнтези, приключения, семейный, HDRip] MVO Galfimbul 788230144752 MB 2 0 1506415000

11:36

26-Сен-17

Мультфильмы до 2016 ·· Гнездо дракона 2: Трон эльфов / Throne of Elves (И Гэ, Сун Юэфэн / Yi Ge, Yuefeng Song) [2016, мультфильм, фэнтези, приключения, семейный, BDRip 720p] MVO + CHI + Eng + Sub (rus, eng, ger) Galfimbul 33811224843.15 GB 2 0 1506323179

10:06

25-Сен-17

Мультфильмы до 2016 ·· Гнездо дракона 2: Трон эльфов / Throne of Elves (И Гэ, Сун Юэфэн / Yi Ge, Yuefeng Song) [2016, мультфильм, фэнтези, приключения, семейный, BDRip 1080p] MVO + CHI + Eng + GER + Sub (rus, eng, ger) Galfimbul 1407452683013.11 GB 0 0 1505819194

14:06

19-Сен-17

Мультфильмы до 2016 ·· Гнездо дракона 2: Трон эльфов / Dragon Nest: Throne of Elves (И Гэ, Сун Юэфэн / Yi Ge, Yuefeng Song) [2016, мультфильм, фэнтези, приключения, семейный, WEB-DLRip 1080p] MVO Galfimbul 29703698372.77 GB 0 0 1501601788

18:36

1-Авг-17

Еще никто не оставлял запись к записи скачать торрент Трон эльфов Throne of Elves . Будь первым!

!Обратная связь