Last downloads | Assistir ESPN BRASIL | Ao Vivo Online HD 24 Horas | David Spade

Скачать через торрент Бэтмен против Двуликого Batman vs. Two-Face Фильм бесплатно в хорошем качестве torrent

Скачивайте на UnionPeer.org фильмы через торрент без регистрации. Новинки кино в хорошем качестве через торрент. На UnionPeer.org можно скачать через торрент фильмы 2014 и 2015 годов. Самые новые фильмы.

Скачать торрент Бэтмен против Двуликого Batman vs. Two-Face бесплатно через .torrent фильм мультфильм сериал

Статистика раздачи
Размер:  1.37 GB   |    Зарегистрирован:  4 месяца 13 дней   |    .torrent скачан:  42 раза   |   
Раздают:  1  
   
загрузка...
 
Автор Сообщение

Galfimbul

avatar Galfimbul


Бэтмен против Двуликого / Batman vs. Two-Face

Страна: США
Жанр: мультфильм, боевик, комедия
Продолжительность: 01:12:07
Год выпуска: 2017
Перевод: любительский (многоголосый закадровый) GreenРай Studio
Русские субтитры: нет

Режиссёр: Рик Моралес / Rick Morales

Роли озвучивали: Адам Уэст, Берт Уорд, Уильям Шетнер, Джули Ньюмар, Джефф Бергман, Сирена Ирвин, Томас Леннон, Ли Меривезер, Уильям Салиерс, Линн Мари Стюарт
Описание: Во время несчастного случая в лечебнице Аркхэм лицо Харви Дента оказывается изуродовано, что приводит к его раздвоению личности и превращению в Двуликого. Пока он устраивает хаос в Готэме, только Бэтмен и Робин могут его остановить.
Качество: HDRip
Формат: AVI
Видео: XviD, 720x400 (1,8:1), 23,976 fps, ~2100 kbps
Аудио 1: AC3 Dolby Digital, 48 kHz, 2 ch, 192 kbps (Rus)
Аудио 2: AC3 Dolby Digital, 48 kHz, 6 ch, 384 kbps (Eng)
Субтитры: отсутствуют

За работу с аудиодорожкой большое спасибо Нордер
ОбщееПолное имя : batman.vs.two.face.2017.aviФормат : AVIФормат/Информация : Audio Video InterleaveРазмер файла : 1,37 ГбайтПродолжительность : 1 ч. 12 м.Общий поток : 2714 Кбит/секПрограмма кодирования : VirtualDubMod 1.5.10.2 (build 2542/release)Библиотека кодирования : VirtualDubMod build 2542/release

ВидеоИдентификатор : 0Формат : MPEG-4 VisualПрофиль формата : Advanced [email protected]Параметр BVOP формата : 2Параметр QPel формата : НетПараметр GMC формата : Без точки переходаПараметр матрицы формата : ВыборочнаяИдентификатор кодека : XVIDИдентификатор кодека/Подсказка : XviDПродолжительность : 1 ч. 12 м.Битрейт : 2124 Кбит/секШирина : 720 пикселейВысота : 400 пикселейСоотношение сторон : 16:9Частота кадров : 23,976 кадра/секЦветовое пространство : YUVСубдискретизация насыщенности : 4:2:0Битовая глубина : 8 битТип развёртки : ПрогрессивнаяМетод сжатия : С потерямиБит/(Пиксели*Кадры) : 0.308Размер потока : 1,07 Гбайт (78%)Библиотека кодирования : XviD 65

Аудио #1Идентификатор : 1Формат : AC-3Формат/Информация : Audio Coding 3Расширение режима : CM (complete main)Параметр Endianness формата : BigИдентификатор кодека : 2000Продолжительность : 1 ч. 12 м.Вид битрейта : ПостоянныйБитрейт : 192 Кбит/секКаналы : 2 каналаРасположение каналов : Front: L RЧастота : 48,0 КГцБитовая глубина : 16 битМетод сжатия : С потерямиРазмер потока : 99,1 Мбайт (7%)Выравнивание : Разделение по промежуткамПродолжительность промежутка : 42 мс. (1,00 видеокадр)Время предзагрузки промежутка : 500 мс.

Аудио #2Идентификатор : 2Формат : AC-3Формат/Информация : Audio Coding 3Расширение режима : CM (complete main)Параметр Endianness формата : BigИдентификатор кодека : 2000Продолжительность : 1 ч. 12 м.Вид битрейта : ПостоянныйБитрейт : 384 Кбит/секКаналы : 6 каналовРасположение каналов : Front: L C R, Side: L R, LFEЧастота : 48,0 КГцБитовая глубина : 16 битМетод сжатия : С потерямиРазмер потока : 198 Мбайт (14%)Выравнивание : Разделение по промежуткамПродолжительность промежутка : 42 мс. (1,00 видеокадр)Время предзагрузки промежутка : 500 мс.


Трекер:  [ 09-Мар-2018 19:36 ]

  

Скачать .torrent

Размер .torrent файла 14 KB


Размер: 1.37 GB
Хэш (hash) релиза: 68062285ae8bb5561d56ca7781605b687e76e74e
Подписка на обновления:

Еще никто не оставлял запись к записи скачать торрент Бэтмен против Двуликого Batman vs. Two-Face . Будь первым!

!Обратная связь