The First Polaroid | Animation | TV Show Request V2

Скачать через торрент музыку Twilight Circus Dub Sound System - Коллекция бесплатно без регистрации torrent

Статистика раздачи
Размер:  3.76 GB   |    Зарегистрирован:  6 лет 8 месяцев   |    .torrent скачан:  63 раза   |   
Раздают:  1  
   
загрузка...
 
Автор Сообщение

_N_

avatar _N_


Twilight Circus Dub Sound System – Коллекция (14 релизов)



Стиль: Dub, Reggae || Страна: The Netherlands || Годы выпуска: 1995-2004
Аудио кодек: FLAC || Тип рипа: tracks+.cue || Продолжительность: 10:35:45
Currently based in The Netherlands, Twilight Circus ringmaster Ryan Moore grew up in Canada and was immersed early on in Dub & Reggae. Moore first learned to play instruments by playing along with classic Jamaican recordings, spending countless hours as a youth playing deep reggae grooves. He has been active in the music world since 1981, appearing as a musician on over 60 albums with various artists in numerous genres.

A Dub fanatic of the first degree since teenage days, his first studio experiments took place in the mid 80's and when he moved to The Netherlands in 1991, virtually unlimited access to recording studio equipment allowed his knob twisting tendencies to develop to the point of no return. In the studio multi-instrumentalist Moore plays and mixes all the tracks himself.
Twilight Circus – In Dub Vol. 1

Лейбл: M Records
Номер по каталогу: 001
Формат: CD, Album, Blue Label
Страна: Netherlands
Год выхода: 1995
Жанр: Electronic, Reggae
Стиль: Dub
Аудиокодек: FLAC
Тип рипа: tracks+.cue
Битрейт аудио: lossless
Продолжительность: 35:54
Источник: zen0, What.CD

Треклист:

1. Dub Frequency [3:49]
2. Rocking Dub [3:43]
3. Chirping Dub [2:55]
4. Sir Dub [3:20]
5. Big Dub [4:11]
6. Dub Statikk [5:19]
7. Cracking Dub [3:56]
8. Speaking Dub [4:06]
9. Vally of the Dub [4:38]
 
Exact Audio Copy V0.99 prebeta 4 from 23. January 2008

EAC extraction logfile from 10. May 2009, 22:12

twilight circus / in dub vol. 1

Used drive : PLEXTOR CD-R PX-230A Adapter: 1 ID: 0

Read mode : SecureUtilize accurate stream : YesDefeat audio cache : YesMake use of C2 pointers : No

Read offset correction : 738Overread into Lead-In and Lead-Out : YesFill up missing offset samples with silence : YesDelete leading and trailing silent blocks : NoNull samples used in CRC calculations : YesUsed interface : Installed external ASPI interfaceGap handling : Appended to previous track

Used output format : User Defined EncoderSelected bitrate : 768 kBit/sQuality : HighAdd ID3 tag : NoCommand line compressor : C:\Program Files\Exact Audio Copy\FLAC\FLAC.EXEAdditional command line options : -8 -T "artist=%a" -T "title=%t" -T "album=%g" -T "date=%y" -T "tracknumber=%n" -T "genre=%m" %s

TOC of the extracted CD

Track | Start | Length | Start sector | End sector --------------------------------------------------------- 1 | 0:00.00 | 3:48.57 | 0 | 17156 2 | 3:48.57 | 3:42.40 | 17157 | 33846 3 | 7:31.22 | 2:54.58 | 33847 | 46954 4 | 10:26.05 | 3:19.42 | 46955 | 61921 5 | 13:45.47 | 4:10.45 | 61922 | 80716 6 | 17:56.17 | 5:18.43 | 80717 | 104609 7 | 23:14.60 | 3:55.50 | 104610 | 122284 8 | 27:10.35 | 4:06.07 | 122285 | 140741 9 | 31:16.42 | 4:38.03 | 140742 | 161594

Track 1

Filename N:\My Music\twilight circus\in dub vol. 1\01 - Track01.wav

Pre-gap length 0:00:02.00

Peak level 100.0 % Track quality 100.0 % Test CRC FC871BA2 Copy CRC FC871BA2 Track not present in AccurateRip database Copy OK

Track 2

Filename N:\My Music\twilight circus\in dub vol. 1\02 - Track02.wav

Pre-gap length 0:00:03.05

Peak level 100.0 % Track quality 100.0 % Test CRC 59627FD3 Copy CRC 59627FD3 Track not present in AccurateRip database Copy OK

Track 3

Filename N:\My Music\twilight circus\in dub vol. 1\03 - Track03.wav

Pre-gap length 0:00:03.32

Peak level 100.0 % Track quality 100.0 % Test CRC 6C44CDBB Copy CRC 6C44CDBB Track not present in AccurateRip database Copy OK

Track 4

Filename N:\My Music\twilight circus\in dub vol. 1\04 - Track04.wav

Pre-gap length 0:00:03.10

Peak level 100.0 % Track quality 100.0 % Test CRC 2AAA5E31 Copy CRC 2AAA5E31 Track not present in AccurateRip database Copy OK

Track 5

Filename N:\My Music\twilight circus\in dub vol. 1\05 - Track05.wav

Pre-gap length 0:00:03.05

Peak level 100.0 % Track quality 100.0 % Test CRC AEFD7DB3 Copy CRC AEFD7DB3 Track not present in AccurateRip database Copy OK

Track 6

Filename N:\My Music\twilight circus\in dub vol. 1\06 - Track06.wav

Pre-gap length 0:00:03.00

Peak level 100.0 % Track quality 100.0 % Test CRC 9769D798 Copy CRC 9769D798 Track not present in AccurateRip database Copy OK

Track 7

Filename N:\My Music\twilight circus\in dub vol. 1\07 - Track07.wav

Pre-gap length 0:00:03.20

Peak level 100.0 % Track quality 100.0 % Test CRC 4947C2C9 Copy CRC 4947C2C9 Track not present in AccurateRip database Copy OK

Track 8

Filename N:\My Music\twilight circus\in dub vol. 1\08 - Track08.wav

Pre-gap length 0:00:02.70

Peak level 100.0 % Track quality 100.0 % Test CRC 3FC81C14 Copy CRC 3FC81C14 Track not present in AccurateRip database Copy OK

Track 9

Filename N:\My Music\twilight circus\in dub vol. 1\09 - Track09.wav

Pre-gap length 0:00:03.05

Peak level 100.0 % Track quality 99.8 % Test CRC 5C5363FB Copy CRC 5C5363FB Track not present in AccurateRip database Copy OK

None of the tracks are present in the AccurateRip database

No errors occurred

End of status report
 
REM DISCID 7B086A09REM COMMENT "ExactAudioCopy v0.99pb4"PERFORMER "Twilight Circus Dub Sound System"TITLE "In Dub, Volume 1"FILE "01 - Dub Frequency.wav" WAVE TRACK 01 AUDIO TITLE "Dub Frequency" PERFORMER "Twilight Circus Dub Sound System" INDEX 01 00:00:00 TRACK 02 AUDIO TITLE "Rocking Dub" PERFORMER "Twilight Circus Dub Sound System" INDEX 00 03:45:52FILE "02 - Rocking Dub.wav" WAVE INDEX 01 00:00:00 TRACK 03 AUDIO TITLE "Chirping Dub" PERFORMER "Twilight Circus Dub Sound System" INDEX 00 03:39:08FILE "03 - Chirping Dub.wav" WAVE INDEX 01 00:00:00 TRACK 04 AUDIO TITLE "Sir Dub" PERFORMER "Twilight Circus Dub Sound System" INDEX 00 02:51:48FILE "04 - Sir Dub.wav" WAVE INDEX 01 00:00:00 TRACK 05 AUDIO TITLE "Big Dub" PERFORMER "Twilight Circus Dub Sound System" INDEX 00 03:16:37FILE "05 - Big Dub.wav" WAVE INDEX 01 00:00:00 TRACK 06 AUDIO TITLE "Dub Statikk" PERFORMER "Twilight Circus Dub Sound System" INDEX 00 04:07:45FILE "06 - Dub Statikk.wav" WAVE INDEX 01 00:00:00 TRACK 07 AUDIO TITLE "Cracking Dub" PERFORMER "Twilight Circus Dub Sound System" INDEX 00 05:15:23FILE "07 - Cracking Dub.wav" WAVE INDEX 01 00:00:00 TRACK 08 AUDIO TITLE "Speaking Dub" PERFORMER "Twilight Circus Dub Sound System" INDEX 00 03:52:55FILE "08 - Speaking Dub.wav" WAVE INDEX 01 00:00:00 TRACK 09 AUDIO TITLE "Vally of the Dub" PERFORMER "Twilight Circus Dub Sound System" INDEX 00 04:03:02FILE "09 - Vally of the Dub.wav" WAVE INDEX 01 00:00:00
Twilight Circus – Other Worlds Of Dub

Лейбл: M Records
Номер по каталогу: CD 127
Формат: CD, Album
Страна: Netherlands
Год выхода: 1996
Жанр: Electronic, Reggae
Стиль: Dub
Аудиокодек: FLAC
Тип рипа: tracks+.cue
Битрейт аудио: lossless
Продолжительность: 34:31
Источник: cleepa, What.CD

Треклист:

1. Salma [4:38]
2. Arabix [4:35]
3. Hose [3:46]
4. Carlton [3:34]
5. Felafel [3:00]
6. Woody [3:37]
7. Maffe [4:20]
8. Indian [4:24]
9. Voice [2:38]
 
Exact Audio Copy V1.0 beta 1 from 15. November 2010

EAC extraction logfile from 27. December 2010, 12:32

Twilight Circus / Other Worlds of Dub

Used drive : HL-DT-STDVD-RAM GH40L Adapter: 2 ID: 0

Read mode : SecureUtilize accurate stream : YesDefeat audio cache : YesMake use of C2 pointers : No

Read offset correction : 667Overread into Lead-In and Lead-Out : NoFill up missing offset samples with silence : YesDelete leading and trailing silent blocks : NoNull samples used in CRC calculations : YesUsed interface : Installed external ASPI interfaceGap handling : Appended to previous track

Used output format : User Defined EncoderSelected bitrate : 128 kBit/sQuality : HighAdd ID3 tag : NoCommand line compressor : C:\Program Files\Exact Audio Copy\Flac\flac.exeAdditional command line options : -V -8 -T "artist=%a" -T "title=%t" -T "album=%g" -T "date=%y" -T "tracknumber=%n" -T "genre=%m" %s

TOC of the extracted CD

Track | Start | Length | Start sector | End sector --------------------------------------------------------- 1 | 0:00.00 | 4:37.40 | 0 | 20814 2 | 4:37.40 | 4:35.15 | 20815 | 41454 3 | 9:12.55 | 3:46.18 | 41455 | 58422 4 | 12:58.73 | 3:33.67 | 58423 | 74464 5 | 16:32.65 | 2:59.48 | 74465 | 87937 6 | 19:32.38 | 3:36.69 | 87938 | 104206 7 | 23:09.32 | 4:20.25 | 104207 | 123731 8 | 27:29.57 | 4:23.69 | 123732 | 143525 9 | 31:53.51 | 2:37.40 | 143526 | 155340

Track 1

Filename H:\audio\temprip\01 - Twilight Circus - Salma.wav

Pre-gap length 0:00:02.00

Peak level 91.4 % Extraction speed 1.9 X Track quality 100.0 % Test CRC 81CE34E6 Copy CRC 81CE34E6 Accurately ripped (confidence 1) [8284993A] Copy OK

Track 2

Filename H:\audio\temprip\02 - Twilight Circus - Arabix.wav

Pre-gap length 0:00:01.60

Peak level 85.8 % Extraction speed 2.1 X Track quality 100.0 % Test CRC 09B67A75 Copy CRC 09B67A75 Accurately ripped (confidence 1) [4B781641] Copy OK

Track 3

Filename H:\audio\temprip\03 - Twilight Circus - Hose.wav

Pre-gap length 0:00:01.53

Peak level 94.2 % Extraction speed 2.3 X Track quality 100.0 % Test CRC 376CB43E Copy CRC 376CB43E Accurately ripped (confidence 1) [8D136480] Copy OK

Track 4

Filename H:\audio\temprip\04 - Twilight Circus - Carlton.wav

Pre-gap length 0:00:01.57

Peak level 100.0 % Extraction speed 2.4 X Track quality 100.0 % Test CRC 864424C4 Copy CRC 864424C4 Accurately ripped (confidence 1) [5CA447C8] Copy OK

Track 5

Filename H:\audio\temprip\05 - Twilight Circus - Felafel.wav

Pre-gap length 0:00:01.58

Peak level 88.6 % Extraction speed 2.0 X Track quality 99.9 % Test CRC 789B5167 Copy CRC 789B5167 Accurately ripped (confidence 1) [34C56BAE] Copy OK

Track 6

Filename H:\audio\temprip\06 - Twilight Circus - Woody.wav

Pre-gap length 0:00:01.60

Peak level 79.4 % Extraction speed 2.7 X Track quality 100.0 % Test CRC 68167499 Copy CRC 68167499 Accurately ripped (confidence 1) [E16A2E60] Copy OK

Track 7

Filename H:\audio\temprip\07 - Twilight Circus - Maffe.wav

Pre-gap length 0:00:00.80

Peak level 85.8 % Extraction speed 2.5 X Track quality 99.9 % Test CRC E99AED08 Copy CRC E99AED08 Accurately ripped (confidence 1) [5BB7DC5E] Copy OK

Track 8

Filename H:\audio\temprip\08 - Twilight Circus - Indian.wav

Pre-gap length 0:00:01.53

Peak level 100.0 % Extraction speed 3.0 X Track quality 100.0 % Test CRC 699C798E Copy CRC 699C798E Accurately ripped (confidence 1) [58060AA4] Copy OK

Track 9

Filename H:\audio\temprip\09 - Twilight Circus - Voice.wav

Pre-gap length 0:00:00.80

Peak level 100.0 % Extraction speed 3.0 X Track quality 100.0 % Test CRC D5E85085 Copy CRC D5E85085 Cannot be verified as accurate (confidence 1) [3129EF69], AccurateRip returned [B9EEF63F] Copy OK

8 track(s) accurately ripped 1 track(s) could not be verified as accurate

Some tracks could not be verified as accurate

No errors occurred

End of status report

==== Log checksum CA4D9FA493B985DF88BFEF4AE1BC9E6E1B1DBA9E04A4C4AAF77E93BD14B8EF0F ====
 
REM DATE 1996REM DISCID 7F081709REM COMMENT "ExactAudioCopy v1.0b1"PERFORMER "Twilight Circus"TITLE "Other Worlds of Dub"FILE "01 - Twilight Circus - Salma.wav" WAVE TRACK 01 AUDIO TITLE "Salma" PERFORMER "Twilight Circus" INDEX 01 00:00:00 TRACK 02 AUDIO TITLE "Arabix" PERFORMER "Twilight Circus" INDEX 00 04:35:70FILE "02 - Twilight Circus - Arabix.wav" WAVE INDEX 01 00:00:00 TRACK 03 AUDIO TITLE "Hose" PERFORMER "Twilight Circus" INDEX 00 04:33:50FILE "03 - Twilight Circus - Hose.wav" WAVE INDEX 01 00:00:00 TRACK 04 AUDIO TITLE "Carlton" PERFORMER "Twilight Circus" INDEX 00 03:44:50FILE "04 - Twilight Circus - Carlton.wav" WAVE INDEX 01 00:00:00 TRACK 05 AUDIO TITLE "Felafel" PERFORMER "Twilight Circus" INDEX 00 03:32:23FILE "05 - Twilight Circus - Felafel.wav" WAVE INDEX 01 00:00:00 TRACK 06 AUDIO TITLE "Woody" PERFORMER "Twilight Circus" INDEX 00 02:58:03FILE "06 - Twilight Circus - Woody.wav" WAVE INDEX 01 00:00:00 TRACK 07 AUDIO TITLE "Maffe" PERFORMER "Twilight Circus" INDEX 00 03:36:09FILE "07 - Twilight Circus - Maffe.wav" WAVE INDEX 01 00:00:00 TRACK 08 AUDIO TITLE "Indian" PERFORMER "Twilight Circus" INDEX 00 04:18:60FILE "08 - Twilight Circus - Indian.wav" WAVE INDEX 01 00:00:00 TRACK 09 AUDIO TITLE "Voice" PERFORMER "Twilight Circus" FLAGS DCP INDEX 00 04:23:09FILE "09 - Twilight Circus - Voice.wav" WAVE INDEX 01 00:00:00
Twilight Circus Dub Sound System – Bin Shaker Dub

Лейбл: M Records
Номер по каталогу: CD 150
Формат: CD, Album
Страна: Netherlands
Год выхода: 1997
Жанр: Electronic, Reggae
Стиль: Dub
Аудиокодек: FLAC
Тип рипа: tracks+.cue
Битрейт аудио: lossless
Продолжительность: 41:17
Источник: DonGoean, What.CD

Треклист:

01. Thunder Mix [4:12]
02. Highway [3:34]
03. Killer [3:51]
04. Lowell And Nine [4:45]
05. Shaka [3:47]
06. Perfect World [3:43]
07. Binghi [4:19]
08. Bong Loop [3:06]
09. U.K. Steppers [4:57]
10. Porno [3:51]
 
Exact Audio Copy V0.99 prebeta 3 from 28. July 2007

EAC extraction logfile from 29. September 2008, 19:44

Twilight Circus Dub Sound System / Bin Shaker Dub

Used drive : TSSTcorpCD/DVDW SH-S182M Adapter: 0 ID: 0

Read mode : SecureUtilize accurate stream : YesDefeat audio cache : YesMake use of C2 pointers : No

Read offset correction : 6Overread into Lead-In and Lead-Out : NoFill up missing offset samples with silence : YesDelete leading and trailing silent blocks : NoNull samples used in CRC calculations : YesUsed interface : Installed external ASPI interfaceGap handling : Appended to previous track

Used output format : Internal WAV RoutinesSample format : 44.100 Hz; 16 Bit; Stereo

TOC of the extracted CD

Track | Start | Length | Start sector | End sector --------------------------------------------------------- 1 | 0:00.00 | 4:12.15 | 0 | 18914 2 | 4:12.15 | 3:33.47 | 18915 | 34936 3 | 7:45.62 | 3:51.10 | 34937 | 52271 4 | 11:36.72 | 4:44.50 | 52272 | 73621 5 | 16:21.47 | 3:46.43 | 73622 | 90614 6 | 20:08.15 | 3:42.65 | 90615 | 107329 7 | 23:51.05 | 4:18.50 | 107330 | 126729 8 | 28:09.55 | 3:06.27 | 126730 | 140706 9 | 31:16.07 | 4:56.68 | 140707 | 162974 10 | 36:13.00 | 3:51.32 | 162975 | 180331

Track 1

Filename D:\_Music\Rips\01 - Thunder Mix.wav

Pre-gap length 0:00:02.00

Peak level 94.4 % Track quality 100.0 % Test CRC 73FC7EBE Copy CRC 73FC7EBE Copy OK

Track 2

Filename D:\_Music\Rips\02 - Highway.wav

Pre-gap length 0:00:01.73

Peak level 93.6 % Track quality 100.0 % Test CRC FC2353AF Copy CRC FC2353AF Copy OK

Track 3

Filename D:\_Music\Rips\03 - Killer.wav

Pre-gap length 0:00:01.73

Peak level 96.9 % Track quality 100.0 % Test CRC 945BE5BE Copy CRC 945BE5BE Copy OK

Track 4

Filename D:\_Music\Rips\04 - Lowell And Nine.wav

Pre-gap length 0:00:01.73

Peak level 94.4 % Track quality 100.0 % Test CRC 7B42C1B6 Copy CRC 7B42C1B6 Copy OK

Track 5

Filename D:\_Music\Rips\05 - Shaka.wav

Pre-gap length 0:00:01.73

Peak level 98.9 % Track quality 100.0 % Test CRC 3FB5BE74 Copy CRC 3FB5BE74 Copy OK

Track 6

Filename D:\_Music\Rips\06 - Perfect World.wav

Pre-gap length 0:00:01.77

Peak level 94.4 % Track quality 100.0 % Test CRC FD3CD260 Copy CRC FD3CD260 Copy OK

Track 7

Filename D:\_Music\Rips\07 - Binghi.wav

Pre-gap length 0:00:01.73

Peak level 98.9 % Track quality 99.9 % Test CRC 476D6EB1 Copy CRC 476D6EB1 Copy OK

Track 8

Filename D:\_Music\Rips\08 - Bong Loop.wav

Pre-gap length 0:00:01.73

Peak level 94.4 % Track quality 100.0 % Test CRC 17E51C4A Copy CRC 17E51C4A Copy OK

Track 9

Filename D:\_Music\Rips\09 - U.K. Steppers.wav

Pre-gap length 0:00:01.73

Peak level 94.4 % Track quality 100.0 % Test CRC 30A1F238 Copy CRC 30A1F238 Copy OK

Track 10

Filename D:\_Music\Rips\10 - Porno.wav

Pre-gap length 0:00:01.73

Peak level 95.3 % Track quality 99.9 % Test CRC 29F2B9BF Copy CRC 29F2B9BF Copy OK

No errors occurred

End of status report
 
REM GENRE DubREM DATE 1997REM DISCID 9009640AREM COMMENT "ExactAudioCopy v0.99pb3"PERFORMER "Twilight Circus Dub Sound System"TITLE "Bin Shaker Dub"FILE "01 - Thunder Mix.wav" WAVE TRACK 01 AUDIO TITLE "Thunder Mix" PERFORMER "Twilight Circus Dub Sound System" INDEX 01 00:00:00 TRACK 02 AUDIO TITLE "Highway" PERFORMER "Twilight Circus Dub Sound System" INDEX 00 04:10:35FILE "02 - Highway.wav" WAVE INDEX 01 00:00:00 TRACK 03 AUDIO TITLE "Killer" PERFORMER "Twilight Circus Dub Sound System" INDEX 00 03:31:67FILE "03 - Killer.wav" WAVE INDEX 01 00:00:00 TRACK 04 AUDIO TITLE "Lowell And Nine" PERFORMER "Twilight Circus Dub Sound System" INDEX 00 03:49:30FILE "04 - Lowell And Nine.wav" WAVE INDEX 01 00:00:00 TRACK 05 AUDIO TITLE "Shaka" PERFORMER "Twilight Circus Dub Sound System" INDEX 00 04:42:70FILE "05 - Shaka.wav" WAVE INDEX 01 00:00:00 TRACK 06 AUDIO TITLE "Perfect World" PERFORMER "Twilight Circus Dub Sound System" INDEX 00 03:44:60FILE "06 - Perfect World.wav" WAVE INDEX 01 00:00:00 TRACK 07 AUDIO TITLE "Binghi" PERFORMER "Twilight Circus Dub Sound System" INDEX 00 03:41:10FILE "07 - Binghi.wav" WAVE INDEX 01 00:00:00 TRACK 08 AUDIO TITLE "Bong Loop" PERFORMER "Twilight Circus Dub Sound System" INDEX 00 04:16:70FILE "08 - Bong Loop.wav" WAVE INDEX 01 00:00:00 TRACK 09 AUDIO TITLE "U.K. Steppers" PERFORMER "Twilight Circus Dub Sound System" INDEX 00 03:04:47FILE "09 - U.K. Steppers.wav" WAVE INDEX 01 00:00:00 TRACK 10 AUDIO TITLE "Porno" PERFORMER "Twilight Circus Dub Sound System" INDEX 00 04:55:13FILE "10 - Porno.wav" WAVE INDEX 01 00:00:00
Twilight Circus Dub Sound System – Dub Plate Selection

Лейбл: M Records
Номер по каталогу: CD 160
Формат: CD, Compilation
Страна: Netherlands
Год выхода: 1998
Жанр: Electronic, Reggae
Стиль: Dub
Аудиокодек: FLAC
Тип рипа: tracks+.cue
Битрейт аудио: lossless
Продолжительность: 1:12:40
Источник: ahoyahoy, What.CD

Треклист:

01. The Ride [6:45]
02. New Steppers [3:19]
03. Filter 13 [4:56]
04. Trouble Dub Plate [4:51]
05. Beneath The Valley Of The Ultra Dub [4:33]
06. 808 Dub Plate [7:40]
07. Rocking Dub (12-Inch Version) [4:09]
08. Lowell And Nine (Shaka Dub Plate) [5:02]
09. Sir Dub Plate [3:21]
10. Indian (Space Dub Plate) [4:27]
11. Filter 13 (Party Mix) [5:01]
12. Lowell And Nine Dub Plate [4:54]
13. Filter 13 (Wailers Tribute Mix) [13:41]
 
Exact Audio Copy V0.99 prebeta 3 from 28. July 2007

EAC extraction logfile from 28. September 2009, 21:32

Twilight Circus Dub Sound System / Dub Plate Selection

Used drive : LITE-ON DVDRW SOHW-1693S Adapter: 3 ID: 1

Read mode : SecureUtilize accurate stream : YesDefeat audio cache : YesMake use of C2 pointers : No

Read offset correction : 12Overread into Lead-In and Lead-Out : NoFill up missing offset samples with silence : YesDelete leading and trailing silent blocks : NoNull samples used in CRC calculations : YesUsed interface : Native Win32 interface for Win NT & 2000Gap handling : Appended to previous track

Used output format : User Defined EncoderSelected bitrate : 320 kBit/sQuality : HighAdd ID3 tag : NoCommand line compressor : C:\Program Files\FLAC\flac.exeAdditional command line options : -V -8 -T "artist=%a" -T "title=%t" -T "album=%g" -T "date=%y" -T "tracknumber=%n" -T "genre=%m" %s

TOC of the extracted CD

Track | Start | Length | Start sector | End sector --------------------------------------------------------- 1 | 0:00.00 | 6:44.70 | 0 | 30369 2 | 6:44.70 | 3:19.30 | 30370 | 45324 3 | 10:04.25 | 4:56.22 | 45325 | 67546 4 | 15:00.47 | 4:51.13 | 67547 | 89384 5 | 19:51.60 | 4:33.30 | 89385 | 109889 6 | 24:25.15 | 7:39.50 | 109890 | 144364 7 | 32:04.65 | 4:09.35 | 144365 | 163074 8 | 36:14.25 | 5:02.15 | 163075 | 185739 9 | 41:16.40 | 3:21.15 | 185740 | 200829 10 | 44:37.55 | 4:26.70 | 200830 | 220849 11 | 49:04.50 | 5:00.47 | 220850 | 243396 12 | 54:05.22 | 4:53.40 | 243397 | 265411 13 | 58:58.62 | 13:41.13 | 265412 | 326999

Track 1

Filename C:\EAC RIPS\Twilight Circus Dub Sound System - 1998 - Dub Plate Selection\01 - The Ride.wav

Pre-gap length 0:00:02.00

Copy aborted

Track 2

Pre-gap length 0:00:01.73

Copy aborted

Track 3

Pre-gap length 0:00:01.65

Copy aborted

Track 4

Pre-gap length 0:00:01.72

Copy aborted

Track 5

Pre-gap length 0:00:01.69

Copy aborted

Track 6

Pre-gap length 0:00:01.77

Copy aborted

Track 7

Pre-gap length 0:00:01.73

Copy aborted

Track 8

Pre-gap length 0:00:01.73

Copy aborted

Track 9

Pre-gap length 0:00:01.69

Copy aborted

Track 10

Pre-gap length 0:00:01.66

Copy aborted

Track 11

Pre-gap length 0:00:01.64

Copy aborted

Track 12

Pre-gap length 0:00:01.70

Copy aborted

Track 13

Pre-gap length 0:00:01.73

Copy aborted

No tracks could be verified as accurate

There were errors

End of status report

------------------------------------------------------------

Exact Audio Copy V0.99 prebeta 3 from 28. July 2007

EAC extraction logfile from 28. September 2009, 23:38

Twilight Circus Dub Sound System / Dub Plate Selection

Used drive : LITE-ON DVDRW SOHW-1693S Adapter: 3 ID: 1

Read mode : SecureUtilize accurate stream : YesDefeat audio cache : YesMake use of C2 pointers : No

Read offset correction : 12Overread into Lead-In and Lead-Out : NoFill up missing offset samples with silence : YesDelete leading and trailing silent blocks : NoNull samples used in CRC calculations : YesUsed interface : Native Win32 interface for Win NT & 2000Gap handling : Appended to previous track

Used output format : User Defined EncoderSelected bitrate : 320 kBit/sQuality : HighAdd ID3 tag : NoCommand line compressor : C:\Program Files\FLAC\flac.exeAdditional command line options : -V -8 -T "artist=%a" -T "title=%t" -T "album=%g" -T "date=%y" -T "tracknumber=%n" -T "genre=%m" %s

TOC of the extracted CD

Track | Start | Length | Start sector | End sector --------------------------------------------------------- 1 | 0:00.00 | 6:44.70 | 0 | 30369 2 | 6:44.70 | 3:19.30 | 30370 | 45324 3 | 10:04.25 | 4:56.22 | 45325 | 67546 4 | 15:00.47 | 4:51.13 | 67547 | 89384 5 | 19:51.60 | 4:33.30 | 89385 | 109889 6 | 24:25.15 | 7:39.50 | 109890 | 144364 7 | 32:04.65 | 4:09.35 | 144365 | 163074 8 | 36:14.25 | 5:02.15 | 163075 | 185739 9 | 41:16.40 | 3:21.15 | 185740 | 200829 10 | 44:37.55 | 4:26.70 | 200830 | 220849 11 | 49:04.50 | 5:00.47 | 220850 | 243396 12 | 54:05.22 | 4:53.40 | 243397 | 265411 13 | 58:58.62 | 13:41.13 | 265412 | 326999

Track 1

Filename C:\EAC RIPS\Twilight Circus Dub Sound System - 1998 - Dub Plate Selection\01 - The Ride.wav

Pre-gap length 0:00:02.00

Peak level 100.0 % Track quality 100.0 % Test CRC AFB8F53A Copy CRC AFB8F53A Track not present in AccurateRip database Copy OK

Track 2

Filename C:\EAC RIPS\Twilight Circus Dub Sound System - 1998 - Dub Plate Selection\02 - New Steppers.wav

Pre-gap length 0:00:01.73

Peak level 100.0 % Track quality 100.0 % Test CRC A55D5E86 Copy CRC A55D5E86 Track not present in AccurateRip database Copy OK

Track 3

Filename C:\EAC RIPS\Twilight Circus Dub Sound System - 1998 - Dub Plate Selection\03 - Filter 13.wav

Pre-gap length 0:00:01.65

Peak level 100.0 % Track quality 100.0 % Test CRC A18DD188 Copy CRC A18DD188 Track not present in AccurateRip database Copy OK

Track 4

Filename C:\EAC RIPS\Twilight Circus Dub Sound System - 1998 - Dub Plate Selection\04 - Trouble Dub Plate.wav

Pre-gap length 0:00:01.72

Peak level 99.9 % Track quality 100.0 % Test CRC B8931855 Copy CRC B8931855 Track not present in AccurateRip database Copy OK

Track 5

Filename C:\EAC RIPS\Twilight Circus Dub Sound System - 1998 - Dub Plate Selection\05 - Beneath The Valley Of The Ultra Dub.wav

Pre-gap length 0:00:01.69

Peak level 98.8 % Track quality 100.0 % Test CRC 275964E8 Copy CRC 275964E8 Track not present in AccurateRip database Copy OK

Track 6

Filename C:\EAC RIPS\Twilight Circus Dub Sound System - 1998 - Dub Plate Selection\06 - 808 Dub Plate.wav

Pre-gap length 0:00:01.77

Peak level 99.8 % Track quality 100.0 % Test CRC 45E89E94 Copy CRC 45E89E94 Track not present in AccurateRip database Copy OK

Track 7

Filename C:\EAC RIPS\Twilight Circus Dub Sound System - 1998 - Dub Plate Selection\07 - Rocking Dub (12-Inch Version).wav

Pre-gap length 0:00:01.73

Peak level 99.6 % Track quality 100.0 % Test CRC 56DFF2CD Copy CRC 56DFF2CD Track not present in AccurateRip database Copy OK

Track 8

Filename C:\EAC RIPS\Twilight Circus Dub Sound System - 1998 - Dub Plate Selection\08 - Lowell And Nine (Shaka Dub Plate).wav

Pre-gap length 0:00:01.73

Peak level 99.8 % Track quality 100.0 % Test CRC D0DDBCB6 Copy CRC D0DDBCB6 Track not present in AccurateRip database Copy OK

Track 9

Filename C:\EAC RIPS\Twilight Circus Dub Sound System - 1998 - Dub Plate Selection\09 - Sir Dub Plate.wav

Pre-gap length 0:00:01.69

Peak level 100.0 % Track quality 100.0 % Test CRC 70165F6E Copy CRC 70165F6E Track not present in AccurateRip database Copy OK

Track 10

Filename C:\EAC RIPS\Twilight Circus Dub Sound System - 1998 - Dub Plate Selection\10 - Indian (Space Dub Plate).wav

Pre-gap length 0:00:01.66

Peak level 99.6 % Track quality 100.0 % Test CRC D4C0E250 Copy CRC D4C0E250 Track not present in AccurateRip database Copy OK

Track 11

Filename C:\EAC RIPS\Twilight Circus Dub Sound System - 1998 - Dub Plate Selection\11 - Filter 13 (Party Mix).wav

Pre-gap length 0:00:01.64

Peak level 99.9 % Track quality 100.0 % Test CRC C9B7F593 Copy CRC C9B7F593 Track not present in AccurateRip database Copy OK

Track 12

Filename C:\EAC RIPS\Twilight Circus Dub Sound System - 1998 - Dub Plate Selection\12 - Lowell And Nine Dub Plate.wav

Pre-gap length 0:00:01.70

Peak level 99.9 % Track quality 99.9 % Test CRC BFECBC82 Copy CRC BFECBC82 Track not present in AccurateRip database Copy OK

Track 13

Filename C:\EAC RIPS\Twilight Circus Dub Sound System - 1998 - Dub Plate Selection\13 - Filter 13 (Wailers Tribute Mix).wav

Pre-gap length 0:00:01.73

Peak level 100.0 % Track quality 100.0 % Test CRC 0C14B2F9 Copy CRC 0C14B2F9 Track not present in AccurateRip database Copy OK

None of the tracks are present in the AccurateRip database

No errors occurred

End of status report
 
REM GENREREM DATE 1998PERFORMER "Twilight Circus Dub Sound System"TITLE "Dub Plate Selection"FILE "01 - The Ride.wav" WAVE TRACK 01 AUDIO TITLE "The Ride" INDEX 01 00:00:00FILE "02 - New Steppers.wav" WAVE TRACK 02 AUDIO TITLE "New Steppers" INDEX 01 00:00:00FILE "03 - Filter 13.wav" WAVE TRACK 03 AUDIO TITLE "Filter 13" INDEX 01 00:00:00FILE "04 - Trouble Dub Plate.wav" WAVE TRACK 04 AUDIO TITLE "Trouble Dub Plate" INDEX 01 00:00:00FILE "05 - Beneath The Valley Of The Ultra Dub.wav" WAVE TRACK 05 AUDIO TITLE "Beneath The Valley Of The Ultra Dub" INDEX 01 00:00:00FILE "06 - 808 Dub Plate.wav" WAVE TRACK 06 AUDIO TITLE "808 Dub Plate" INDEX 01 00:00:00FILE "07 - Rocking Dub (12-Inch Version).wav" WAVE TRACK 07 AUDIO TITLE "Rocking Dub (12-Inch Version)" INDEX 01 00:00:00FILE "08 - Lowell And Nine (Shaka Dub Plate).wav" WAVE TRACK 08 AUDIO TITLE "Lowell And Nine (Shaka Dub Plate)" INDEX 01 00:00:00FILE "09 - Sir Dub Plate.wav" WAVE TRACK 09 AUDIO TITLE "Sir Dub Plate" INDEX 01 00:00:00FILE "10 - Indian (Space Dub Plate).wav" WAVE TRACK 10 AUDIO TITLE "Indian (Space Dub Plate)" INDEX 01 00:00:00FILE "11 - Filter 13 (Party Mix).wav" WAVE TRACK 11 AUDIO TITLE "Filter 13 (Party Mix)" INDEX 01 00:00:00FILE "12 - Lowell And Nine Dub Plate.wav" WAVE TRACK 12 AUDIO TITLE "Lowell And Nine Dub Plate" INDEX 01 00:00:00FILE "13 - Filter 13 (Wailers Tribute Mix).wav" WAVE TRACK 13 AUDIO TITLE "Filter 13 (Wailers Tribute Mix)" INDEX 01 00:00:00
Twilight Circus Sound System – Horsie

Лейбл: M Records
Номер по каталогу: CD 170
Формат: CD, Album, Limited Edition
Страна: Netherlands
Дата выхода диска: 15 Feb 1999
Жанр: Electronic
Стиль: Dub, Reggae
Аудиокодек: FLAC
Тип рипа: tracks+.cue
Битрейт аудио: lossless
Продолжительность: 41:17
Источник: ManWithoutModem, What.CD

Треклист:

01. Romy [4:25]
02. Dance [5:10]
03. Horsie [4:08]
04. Kik [4:17]
05. Ergmm [3:24]
06. Oats [3:41]
07. Bord [4:43]
08. Carousel [3:53]
09. Binshaker Dub [4:24]
10. Rock Salt [3:11]
 
Exact Audio Copy V1.0 beta 1 from 15. November 2010

EAC extraction logfile from 1. June 2011, 22:23

Twilight Circus Sound System / Horsie

Used drive : PHILIPS DROM6216 Adapter: 2 ID: 0

Read mode : SecureUtilize accurate stream : YesDefeat audio cache : YesMake use of C2 pointers : No

Read offset correction : 738Overread into Lead-In and Lead-Out : NoFill up missing offset samples with silence : YesDelete leading and trailing silent blocks : NoNull samples used in CRC calculations : YesUsed interface : Native Win32 interface for Win NT & 2000Gap handling : Appended to previous track

Used output format : User Defined EncoderSelected bitrate : 768 kBit/sQuality : HighAdd ID3 tag : NoCommand line compressor : C:\Program\Exact Audio Copy\FLAC\FLAC.EXEAdditional command line options : -6 -V -T "ARTIST=%a" -T "TITLE=%t" -T "ALBUM=%g" -T "DATE=%y" -T "TRACKNUMBER=%n" -T "GENRE=%m" -T "COMMENT=%e" %j--picture="%i"%j %s -o %d

TOC of the extracted CD

Track | Start | Length | Start sector | End sector --------------------------------------------------------- 1 | 0:00.00 | 4:25.16 | 0 | 19890 2 | 4:25.16 | 5:09.50 | 19891 | 43115 3 | 9:34.66 | 4:08.06 | 43116 | 61721 4 | 13:42.72 | 4:17.09 | 61722 | 81005 5 | 18:00.06 | 3:24.22 | 81006 | 96327 6 | 21:24.28 | 3:41.35 | 96328 | 112937 7 | 25:05.63 | 4:42.48 | 112938 | 134135 8 | 29:48.36 | 3:53.16 | 134136 | 151626 9 | 33:41.52 | 4:24.11 | 151627 | 171437 10 | 38:05.63 | 3:11.16 | 171438 | 185778

Track 1

Filename F:\Min musik\EACrips\Twilight Circus Sound System - 1999 - Horsie [FLAC]\01 - Romy.wav

Pre-gap length 0:00:02.00

Peak level 87.1 % Extraction speed 2.4 X Track quality 100.0 % Test CRC 200C9D63 Copy CRC 200C9D63 Track not present in AccurateRip database Copy OK

Track 2

Filename F:\Min musik\EACrips\Twilight Circus Sound System - 1999 - Horsie [FLAC]\02 - Dance.wav

Pre-gap length 0:00:02.53

Peak level 100.0 % Extraction speed 2.8 X Track quality 100.0 % Test CRC 2924F455 Copy CRC 2924F455 Track not present in AccurateRip database Copy OK

Track 3

Filename F:\Min musik\EACrips\Twilight Circus Sound System - 1999 - Horsie [FLAC]\03 - Horsie.wav

Pre-gap length 0:00:02.00

Peak level 99.8 % Extraction speed 2.9 X Track quality 100.0 % Test CRC 0DD707F7 Copy CRC 0DD707F7 Track not present in AccurateRip database Copy OK

Track 4

Filename F:\Min musik\EACrips\Twilight Circus Sound System - 1999 - Horsie [FLAC]\04 - Kik.wav

Pre-gap length 0:00:02.53

Peak level 99.8 % Extraction speed 3.2 X Track quality 100.0 % Test CRC 2A2B8929 Copy CRC 2A2B8929 Track not present in AccurateRip database Copy OK

Track 5

Filename F:\Min musik\EACrips\Twilight Circus Sound System - 1999 - Horsie [FLAC]\05 - Ergmm.wav

Pre-gap length 0:00:00.01

Peak level 97.0 % Extraction speed 3.3 X Track quality 100.0 % Test CRC C3B8980C Copy CRC C3B8980C Track not present in AccurateRip database Copy OK

Track 6

Filename F:\Min musik\EACrips\Twilight Circus Sound System - 1999 - Horsie [FLAC]\06 - Oats.wav

Pre-gap length 0:00:02.00

Peak level 100.0 % Extraction speed 2.6 X Track quality 99.9 % Test CRC C80FD605 Copy CRC C80FD605 Track not present in AccurateRip database Copy OK

Track 7

Filename F:\Min musik\EACrips\Twilight Circus Sound System - 1999 - Horsie [FLAC]\07 - Bord.wav

Pre-gap length 0:00:02.00

Peak level 100.0 % Extraction speed 3.8 X Track quality 100.0 % Test CRC 7E5DEB4A Copy CRC 7E5DEB4A Track not present in AccurateRip database Copy OK

Track 8

Filename F:\Min musik\EACrips\Twilight Circus Sound System - 1999 - Horsie [FLAC]\08 - Carousel.wav

Pre-gap length 0:00:02.00

Peak level 100.0 % Extraction speed 3.8 X Track quality 100.0 % Test CRC D7F8FB8A Copy CRC D7F8FB8A Track not present in AccurateRip database Copy OK

Track 9

Filename F:\Min musik\EACrips\Twilight Circus Sound System - 1999 - Horsie [FLAC]\09 - Binshaker Dub.wav

Pre-gap length 0:00:01.53

Peak level 89.1 % Extraction speed 4.1 X Track quality 100.0 % Test CRC 3B559801 Copy CRC 3B559801 Track not present in AccurateRip database Copy OK

Track 10

Filename F:\Min musik\EACrips\Twilight Circus Sound System - 1999 - Horsie [FLAC]\10 - Rock Salt.wav

Pre-gap length 0:00:03.00

Peak level 100.0 % Extraction speed 4.0 X Track quality 100.0 % Test CRC 8F8D375F Copy CRC 8F8D375F Track not present in AccurateRip database Copy OK

None of the tracks are present in the AccurateRip database

No errors occurred

End of status report

==== Log checksum A29559ABD0613647BC32EAF01CDB6C111782A9AD50343A277C67638C3ABF9C4A ====
 
REM GENRE ElectronicREM DATE 1999REM DISCID 8509AD0AREM COMMENT "ExactAudioCopy v1.0b1"FILE "01 - Romy.wav" WAVE TRACK 01 AUDIO INDEX 01 00:00:00 TRACK 02 AUDIO INDEX 00 04:22:51FILE "02 - Dance.wav" WAVE INDEX 01 00:00:00 TRACK 03 AUDIO INDEX 00 05:07:50FILE "03 - Horsie.wav" WAVE INDEX 01 00:00:00 TRACK 04 AUDIO INDEX 00 04:05:41FILE "04 - Kik.wav" WAVE INDEX 01 00:00:00 TRACK 05 AUDIO INDEX 00 04:17:08FILE "05 - Ergmm.wav" WAVE INDEX 01 00:00:00 TRACK 06 AUDIO INDEX 00 03:22:22FILE "06 - Oats.wav" WAVE INDEX 01 00:00:00 TRACK 07 AUDIO INDEX 00 03:39:35FILE "07 - Bord.wav" WAVE INDEX 01 00:00:00 TRACK 08 AUDIO INDEX 00 04:40:48FILE "08 - Carousel.wav" WAVE INDEX 01 00:00:00 TRACK 09 AUDIO INDEX 00 03:51:51FILE "09 - Binshaker Dub.wav" WAVE INDEX 01 00:00:00 TRACK 10 AUDIO INDEX 00 04:21:11FILE "10 - Rock Salt.wav" WAVE INDEX 01 00:00:00
Twilight Circus Dub Sound System – Dub Plates Volume Two

Лейбл: M Records
Номер по каталогу: CD 180
Формат: CD, Album
Страна: Netherlands
Год выхода: 1998
Жанр: Electronic, Reggae
Стиль: Dub
Аудиокодек: FLAC
Тип рипа: tracks+.cue
Битрейт аудио: lossless
Продолжительность: 42:26
Источник: Ultravod, What.CD

Треклист:

01. Bord Plate [4:37]
02. New Rockers [4:07]
03. Shaka Version [3:43]
04. Trinity [3:02]
05. Dance Plate [5:10]
06. Binshaker Dub Plate [4:34]
07. Iguana [4:27]
08. Kik Plate [4:01]
09. Killer Version [3:52]
10. Filter 13 - Ultra Dub [4:51]
 
Exact Audio Copy V0.99 prebeta 5 from 4. May 2009

EAC extraction logfile from 22. February 2010, 21:04

Twilight Circus Dub Sound System / Dub Plates Volume Two

Used drive : _NEC DVD+RW ND-1100A Adapter: 1 ID: 1

Read mode : SecureUtilize accurate stream : YesDefeat audio cache : YesMake use of C2 pointers : No

Read offset correction : 48Overread into Lead-In and Lead-Out : NoFill up missing offset samples with silence : YesDelete leading and trailing silent blocks : NoNull samples used in CRC calculations : YesUsed interface : Native Win32 interface for Win NT & 2000Gap handling : Appended to previous track

Used output format : User Defined EncoderSelected bitrate : 768 kBit/sQuality : HighAdd ID3 tag : NoCommand line compressor : C:\Program Files\Audio\Exact Audio Copy\FLAC\FLAC.EXEAdditional command line options : -6 -V -T "ARTIST=%a" -T "TITLE=%t" -T "ALBUM=%g" -T "DATE=%y" -T "TRACKNUMBER=%n" -T "GENRE=%m" -T "COMMENT=%e" %s -o %d

TOC of the extracted CD

Track | Start | Length | Start sector | End sector --------------------------------------------------------- 1 | 0:00.00 | 4:37.30 | 0 | 20804 2 | 4:37.30 | 4:07.37 | 20805 | 39366 3 | 8:44.67 | 3:43.05 | 39367 | 56096 4 | 12:27.72 | 3:02.05 | 56097 | 69751 5 | 15:30.02 | 5:10.00 | 69752 | 93001 6 | 20:40.02 | 4:34.30 | 93002 | 113581 7 | 25:14.32 | 4:26.65 | 113582 | 133596 8 | 29:41.22 | 4:01.33 | 133597 | 151704 9 | 33:42.55 | 3:52.37 | 151705 | 169141 10 | 37:35.17 | 4:50.73 | 169142 | 190964

Track 1

Filename C:\rips\Twilight Circus Dub Sound System - Dub Plates Volume Two ()\01 Twilight Circus Dub Sound System - Bord Plate.wav

Pre-gap length 0:00:02.00

Peak level 100.0 % Track quality 100.0 % Test CRC 416083C4 Copy CRC 416083C4 Track not present in AccurateRip database Copy OK

Track 2

Filename C:\rips\Twilight Circus Dub Sound System - Dub Plates Volume Two ()\02 Twilight Circus Dub Sound System - New Rockers.wav

Pre-gap length 0:00:01.55

Peak level 100.0 % Track quality 100.0 % Test CRC BBC0C983 Copy CRC BBC0C983 Track not present in AccurateRip database Copy OK

Track 3

Filename C:\rips\Twilight Circus Dub Sound System - Dub Plates Volume Two ()\03 Twilight Circus Dub Sound System - Shaka Version.wav

Pre-gap length 0:00:01.57

Peak level 94.2 % Track quality 100.0 % Test CRC 5D217745 Copy CRC 5D217745 Track not present in AccurateRip database Copy OK

Track 4

Filename C:\rips\Twilight Circus Dub Sound System - Dub Plates Volume Two ()\04 Twilight Circus Dub Sound System - Trinity.wav

Pre-gap length 0:00:01.55

Peak level 100.0 % Track quality 100.0 % Test CRC E2E838AC Copy CRC E2E838AC Track not present in AccurateRip database Copy OK

Track 5

Filename C:\rips\Twilight Circus Dub Sound System - Dub Plates Volume Two ()\05 Twilight Circus Dub Sound System - Dance Plate.wav

Pre-gap length 0:00:01.55

Peak level 100.0 % Track quality 100.0 % Test CRC F1BA5293 Copy CRC F1BA5293 Track not present in AccurateRip database Copy OK

Track 6

Filename C:\rips\Twilight Circus Dub Sound System - Dub Plates Volume Two ()\06 Twilight Circus Dub Sound System - Binshaker Dub Plate.wav

Pre-gap length 0:00:01.57

Peak level 100.0 % Track quality 100.0 % Test CRC 38C622B8 Copy CRC 38C622B8 Track not present in AccurateRip database Copy OK

Track 7

Filename C:\rips\Twilight Circus Dub Sound System - Dub Plates Volume Two ()\07 Twilight Circus Dub Sound System - Iguana.wav

Pre-gap length 0:00:01.55

Peak level 100.0 % Track quality 100.0 % Test CRC A09C094F Copy CRC A09C094F Track not present in AccurateRip database Copy OK

Track 8

Filename C:\rips\Twilight Circus Dub Sound System - Dub Plates Volume Two ()\08 Twilight Circus Dub Sound System - Kik Plate.wav

Pre-gap length 0:00:01.55

Peak level 100.0 % Track quality 100.0 % Test CRC AA384344 Copy CRC AA384344 Track not present in AccurateRip database Copy OK

Track 9

Filename C:\rips\Twilight Circus Dub Sound System - Dub Plates Volume Two ()\09 Twilight Circus Dub Sound System - Killer Version.wav

Pre-gap length 0:00:01.55

Peak level 100.0 % Track quality 100.0 % Test CRC 07DAFD2A Copy CRC 07DAFD2A Track not present in AccurateRip database Copy OK

Track 10

Filename C:\rips\Twilight Circus Dub Sound System - Dub Plates Volume Two ()\10 Twilight Circus Dub Sound System - Filter 13 - Ultra Dub.wav

Pre-gap length 0:00:01.57

Peak level 99.1 % Track quality 100.0 % Test CRC 1A21B994 Copy CRC 1A21B994 Track not present in AccurateRip database Copy OK

None of the tracks are present in the AccurateRip database

No errors occurred

End of status report
 
REM DISCID 8409F20AREM COMMENT "ExactAudioCopy v0.99pb5"PERFORMER "Twilight Circus Dub Sound System"TITLE "Dub Plates Volume Two"FILE "01 Twilight Circus Dub Sound System - Bord Plate.wav" WAVE TRACK 01 AUDIO TITLE "Bord Plate" PERFORMER "Twilight Circus Dub Sound System" INDEX 01 00:00:00 TRACK 02 AUDIO TITLE "New Rockers" PERFORMER "Twilight Circus Dub Sound System" INDEX 00 04:35:50FILE "02 Twilight Circus Dub Sound System - New Rockers.wav" WAVE INDEX 01 00:00:00 TRACK 03 AUDIO TITLE "Shaka Version" PERFORMER "Twilight Circus Dub Sound System" INDEX 00 04:05:55FILE "03 Twilight Circus Dub Sound System - Shaka Version.wav" WAVE INDEX 01 00:00:00 TRACK 04 AUDIO TITLE "Trinity" PERFORMER "Twilight Circus Dub Sound System" INDEX 00 03:41:25FILE "04 Twilight Circus Dub Sound System - Trinity.wav" WAVE INDEX 01 00:00:00 TRACK 05 AUDIO TITLE "Dance Plate" PERFORMER "Twilight Circus Dub Sound System" INDEX 00 03:00:25FILE "05 Twilight Circus Dub Sound System - Dance Plate.wav" WAVE INDEX 01 00:00:00 TRACK 06 AUDIO TITLE "Binshaker Dub Plate" PERFORMER "Twilight Circus Dub Sound System" INDEX 00 05:08:18FILE "06 Twilight Circus Dub Sound System - Binshaker Dub Plate.wav" WAVE INDEX 01 00:00:00 TRACK 07 AUDIO TITLE "Iguana" PERFORMER "Twilight Circus Dub Sound System" INDEX 00 04:32:50FILE "07 Twilight Circus Dub Sound System - Iguana.wav" WAVE INDEX 01 00:00:00 TRACK 08 AUDIO TITLE "Kik Plate" PERFORMER "Twilight Circus Dub Sound System" INDEX 00 04:25:10FILE "08 Twilight Circus Dub Sound System - Kik Plate.wav" WAVE INDEX 01 00:00:00 TRACK 09 AUDIO TITLE "Killer Version" PERFORMER "Twilight Circus Dub Sound System" INDEX 00 03:59:53FILE "09 Twilight Circus Dub Sound System - Killer Version.wav" WAVE INDEX 01 00:00:00 TRACK 10 AUDIO TITLE "Filter 13 - Ultra Dub" PERFORMER "Twilight Circus Dub Sound System" INDEX 00 03:50:55FILE "10 Twilight Circus Dub Sound System - Filter 13 - Ultra Dub.wav" WAVE INDEX 01 00:00:00
Twilight Circus Dub Sound System – Dub Voyage

Лейбл: M Records
Номер по каталогу: CD 190
Формат: CD, Album
Страна: Netherlands
Год выхода: 2000
Жанр: Electronic, Reggae
Стиль: Dub
Аудиокодек: FLAC
Тип рипа: tracks+.cue
Битрейт аудио: lossless
Продолжительность: 43:31
Источник: treblejunglist, What.CD

Треклист:

01. Acetate [4:28]
02. Dub Voyage [3:29]
03. Heavy [4:51]
04. Wareika [4:23]
05. Depth Charge [4:36]
06. Fast [4:08]
07. Blaster [3:20]
08. K2000 [3:30]
09. Slicer [4:14]
10. Silver [3:34]
11. Massive [2:58]
 
EAC extraction logfile from 19. November 2005, 12:55 for CDTwilight Circus Dub Sound System / Dub Voyage

Used drive : _NEC DVD_RW ND-3500AG Adapter: 1 ID: 3Read mode : Secure with NO C2, accurate stream, disable cacheRead offset correction : 48Overread into Lead-In and Lead-Out : No

Used output format : Internal WAV Routines 44.100 Hz; 16 Bit; Stereo

Other options : Fill up missing offset samples with silence : Yes Delete leading and trailing silent blocks : No Installed external ASPI interface

Track 1 Filename E:\Settings\Admin\My Documents\Stuff\EAC\Twilight Circus Dub Sound System - Dub Voyage - 01 - Acetate.wav

Pre-gap length 0:00:02.00

Peak level 100.0 % Track quality 100.0 % Test CRC EC49679B Copy CRC EC49679B Copy OK

Track 2 Filename E:\Settings\Admin\My Documents\Stuff\EAC\Twilight Circus Dub Sound System - Dub Voyage - 02 - Dub Voyage.wav

Pre-gap length 0:00:01.55

Peak level 100.0 % Track quality 100.0 % Test CRC 6F382ED9 Copy CRC 6F382ED9 Copy OK

Track 3 Filename E:\Settings\Admin\My Documents\Stuff\EAC\Twilight Circus Dub Sound System - Dub Voyage - 03 - Heavy.wav

Pre-gap length 0:00:01.55

Peak level 100.0 % Track quality 100.0 % Test CRC A270994B Copy CRC A270994B Copy OK

Track 4 Filename E:\Settings\Admin\My Documents\Stuff\EAC\Twilight Circus Dub Sound System - Dub Voyage - 04 - Wareika.wav

Pre-gap length 0:00:01.55

Peak level 100.0 % Track quality 100.0 % Test CRC 7FFEAE04 Copy CRC 7FFEAE04 Copy OK

Track 5 Filename E:\Settings\Admin\My Documents\Stuff\EAC\Twilight Circus Dub Sound System - Dub Voyage - 05 - Depth Charge.wav

Pre-gap length 0:00:01.55

Peak level 100.0 % Track quality 100.0 % Test CRC 5C842F1B Copy CRC 5C842F1B Copy OK

Track 6 Filename E:\Settings\Admin\My Documents\Stuff\EAC\Twilight Circus Dub Sound System - Dub Voyage - 06 - Fast.wav

Pre-gap length 0:00:01.55

Peak level 100.0 % Track quality 100.0 % Test CRC 223BA39D Copy CRC 223BA39D Copy OK

Track 7 Filename E:\Settings\Admin\My Documents\Stuff\EAC\Twilight Circus Dub Sound System - Dub Voyage - 07 - Blaster.wav

Pre-gap length 0:00:01.55

Peak level 100.0 % Track quality 100.0 % Test CRC EE86F306 Copy CRC EE86F306 Copy OK

Track 8 Filename E:\Settings\Admin\My Documents\Stuff\EAC\Twilight Circus Dub Sound System - Dub Voyage - 08 - K2000.wav

Pre-gap length 0:00:01.57

Peak level 100.0 % Track quality 100.0 % Test CRC 81ACFA8B Copy CRC 81ACFA8B Copy OK

Track 9 Filename E:\Settings\Admin\My Documents\Stuff\EAC\Twilight Circus Dub Sound System - Dub Voyage - 09 - Slicer.wav

Pre-gap length 0:00:01.55

Peak level 100.0 % Track quality 100.0 % Test CRC 86070DCB Copy CRC 86070DCB Copy OK

Track 10 Filename E:\Settings\Admin\My Documents\Stuff\EAC\Twilight Circus Dub Sound System - Dub Voyage - 10 - Silver.wav

Pre-gap length 0:00:01.55

Peak level 100.0 % Track quality 100.0 % Test CRC B4673760 Copy CRC B4673760 Copy OK

Track 11 Filename E:\Settings\Admin\My Documents\Stuff\EAC\Twilight Circus Dub Sound System - Dub Voyage - 11 - Massive.wav

Pre-gap length 0:00:01.55

Peak level 100.0 % Track quality 100.0 % Test CRC 9178E3BD Copy CRC 9178E3BD Copy OK

No errors occured

End of status report
 
REM GENRE DubREM DATE 2000REM DISCID 920A330BREM COMMENT "ExactAudioCopy v0.95b3"PERFORMER "Twilight Circus Dub Sound System"TITLE "Dub Voyage"FILE "01 - Acetate.wav" WAVE TRACK 01 AUDIO TITLE "Acetate" PERFORMER "Twilight Circus Dub Sound System" INDEX 01 00:00:00 TRACK 02 AUDIO TITLE "Dub Voyage" PERFORMER "Twilight Circus Dub Sound System" INDEX 00 04:26:55FILE "02 - Dub Voyage.wav" WAVE INDEX 01 00:00:00 TRACK 03 AUDIO TITLE "Heavy" PERFORMER "Twilight Circus Dub Sound System" INDEX 00 03:26:67FILE "03 - Heavy.wav" WAVE INDEX 01 00:00:00 TRACK 04 AUDIO TITLE "Wareika" PERFORMER "Twilight Circus Dub Sound System" INDEX 00 04:49:40FILE "04 - Wareika.wav" WAVE INDEX 01 00:00:00 TRACK 05 AUDIO TITLE "Depth Charge" PERFORMER "Twilight Circus Dub Sound System" INDEX 00 04:21:55FILE "05 - Depth Charge.wav" WAVE INDEX 01 00:00:00 TRACK 06 AUDIO TITLE "Fast" PERFORMER "Twilight Circus Dub Sound System" INDEX 00 04:33:58FILE "06 - Fast.wav" WAVE INDEX 01 00:00:00 TRACK 07 AUDIO TITLE "Blaster" PERFORMER "Twilight Circus Dub Sound System" INDEX 00 04:05:67FILE "07 - Blaster.wav" WAVE INDEX 01 00:00:00 TRACK 08 AUDIO TITLE "K2000" PERFORMER "Twilight Circus Dub Sound System" INDEX 00 03:18:53FILE "08 - K2000.wav" WAVE INDEX 01 00:00:00 TRACK 09 AUDIO TITLE "Slicer" PERFORMER "Twilight Circus Dub Sound System" INDEX 00 03:28:53FILE "09 - Slicer.wav" WAVE INDEX 01 00:00:00 TRACK 10 AUDIO TITLE "Silver" PERFORMER "Twilight Circus Dub Sound System" INDEX 00 04:11:60FILE "10 - Silver.wav" WAVE INDEX 01 00:00:00 TRACK 11 AUDIO TITLE "Massive" PERFORMER "Twilight Circus Dub Sound System" INDEX 00 03:32:30FILE "11 - Massive.wav" WAVE INDEX 01 00:00:00
Twilight Circus Dub Sound System – Volcanic Dub

Лейбл: M Records
Номер по каталогу: CD 200
Формат: CD, Album
Страна: Netherlands
Год выхода: 2001
Жанр: Electronic, Reggae
Стиль: Dub
Аудиокодек: FLAC
Тип рипа: tracks+.cue
Битрейт аудио: lossless
Продолжительность: 41:45
Источник: djricochet99, What.CD

Треклист:

01. Lightning Strike [3:38]
02. Rolling Thunder [3:32]
03. Spacehall [3:11]
04. Floorshaker [3:33]
05. Dub Blast [2:50]
06. Seismic [4:23]
07. Dub Quake [4:14]
08. Flexi [3:11]
09. Keep Moving Dub [3:31]
10. Lava Flow [3:34]
11. Volcanic [3:04]
12. Fams [3:04]
 
Exact Audio Copy V0.99 prebeta 5 from 4. May 2009

EAC extraction logfile from 12. November 2009, 6:19

Twilight Circus Dub Sound System / Volcanic Dub

Used drive : PIONEER DVR-113NP Adapter: 3 ID: 0

Read mode : SecureUtilize accurate stream : YesDefeat audio cache : YesMake use of C2 pointers : No

Read offset correction : 6Overread into Lead-In and Lead-Out : NoFill up missing offset samples with silence : YesDelete leading and trailing silent blocks : NoNull samples used in CRC calculations : YesUsed interface : Native Win32 interface for Win NT & 2000Gap handling : Appended to previous track

Used output format : User Defined EncoderSelected bitrate : 1024 kBit/sQuality : HighAdd ID3 tag : NoCommand line compressor : C:\Program Files (x86)\Exact Audio Copy\Flac\flac.exeAdditional command line options : -8 -V -T "ARTIST=%a" -T "TITLE=%t" -T "ALBUM=%g" -T "DATE=%y" -T "TRACKNUMBER=%n" -T "GENRE=%m" -T "COMMENT=EAC FLAC -8" %s

TOC of the extracted CD

Track | Start | Length | Start sector | End sector --------------------------------------------------------- 1 | 0:00.00 | 3:38.32 | 0 | 16381 2 | 3:38.32 | 3:32.20 | 16382 | 32301 3 | 7:10.52 | 3:11.05 | 32302 | 46631 4 | 10:21.57 | 3:32.65 | 46632 | 62596 5 | 13:54.47 | 2:50.35 | 62597 | 75381 6 | 16:45.07 | 4:23.13 | 75382 | 95119 7 | 21:08.20 | 4:14.07 | 95120 | 114176 8 | 25:22.27 | 3:10.68 | 114177 | 128494 9 | 28:33.20 | 3:30.40 | 128495 | 144284 10 | 32:03.60 | 3:33.55 | 144285 | 160314 11 | 35:37.40 | 3:04.05 | 160315 | 174119 12 | 38:41.45 | 3:03.45 | 174120 | 187889

Track 1

Filename L:\RICOCHET\Documents\CD Archival Project\Reggae\Twiglight Circus Dub Sound System - Volcanic Dub (2001) [FLAC]\01 - Lightning Strike.wav

Pre-gap length 0:00:02.00

Peak level 100.0 % Track quality 100.0 % Test CRC 6DE6B6B3 Copy CRC 6DE6B6B3 Track not present in AccurateRip database Copy OK

Track 2

Filename L:\RICOCHET\Documents\CD Archival Project\Reggae\Twiglight Circus Dub Sound System - Volcanic Dub (2001) [FLAC]\02 - Rolling Thunder.wav

Pre-gap length 0:00:01.73

Peak level 100.0 % Track quality 100.0 % Test CRC CD3360E5 Copy CRC CD3360E5 Track not present in AccurateRip database Copy OK

Track 3

Filename L:\RICOCHET\Documents\CD Archival Project\Reggae\Twiglight Circus Dub Sound System - Volcanic Dub (2001) [FLAC]\03 - Spacehall.wav

Pre-gap length 0:00:01.73

Peak level 100.0 % Track quality 100.0 % Test CRC 284620FE Copy CRC 284620FE Track not present in AccurateRip database Copy OK

Track 4

Filename L:\RICOCHET\Documents\CD Archival Project\Reggae\Twiglight Circus Dub Sound System - Volcanic Dub (2001) [FLAC]\04 - Floorshaker.wav

Pre-gap length 0:00:01.73

Peak level 94.4 % Track quality 99.9 % Test CRC F7EA7326 Copy CRC F7EA7326 Track not present in AccurateRip database Copy OK

Track 5

Filename L:\RICOCHET\Documents\CD Archival Project\Reggae\Twiglight Circus Dub Sound System - Volcanic Dub (2001) [FLAC]\05 - Dub Blast.wav

Pre-gap length 0:00:01.73

Peak level 100.0 % Track quality 100.0 % Test CRC 1E202AFA Copy CRC 1E202AFA Track not present in AccurateRip database Copy OK

Track 6

Filename L:\RICOCHET\Documents\CD Archival Project\Reggae\Twiglight Circus Dub Sound System - Volcanic Dub (2001) [FLAC]\06 - Seismic.wav

Pre-gap length 0:00:01.73

Peak level 100.0 % Track quality 100.0 % Test CRC 2395C9CD Copy CRC 2395C9CD Track not present in AccurateRip database Copy OK

Track 7

Filename L:\RICOCHET\Documents\CD Archival Project\Reggae\Twiglight Circus Dub Sound System - Volcanic Dub (2001) [FLAC]\07 - Dub Quake.wav

Pre-gap length 0:00:01.73

Peak level 100.0 % Track quality 100.0 % Test CRC 429CBFB7 Copy CRC 429CBFB7 Track not present in AccurateRip database Copy OK

Track 8

Filename L:\RICOCHET\Documents\CD Archival Project\Reggae\Twiglight Circus Dub Sound System - Volcanic Dub (2001) [FLAC]\08 - Flexi.wav

Pre-gap length 0:00:01.73

Peak level 100.0 % Track quality 99.9 % Test CRC 1C733A68 Copy CRC 1C733A68 Track not present in AccurateRip database Copy OK

Track 9

Filename L:\RICOCHET\Documents\CD Archival Project\Reggae\Twiglight Circus Dub Sound System - Volcanic Dub (2001) [FLAC]\09 - Keep Moving Dub.wav

Pre-gap length 0:00:01.73

Peak level 100.0 % Track quality 99.9 % Test CRC 9B72164D Copy CRC 9B72164D Track not present in AccurateRip database Copy OK

Track 10

Filename L:\RICOCHET\Documents\CD Archival Project\Reggae\Twiglight Circus Dub Sound System - Volcanic Dub (2001) [FLAC]\10 - Lava Flow.wav

Pre-gap length 0:00:01.73

Peak level 100.0 % Track quality 100.0 % Test CRC F76AADE9 Copy CRC F76AADE9 Track not present in AccurateRip database Copy OK

Track 11

Filename L:\RICOCHET\Documents\CD Archival Project\Reggae\Twiglight Circus Dub Sound System - Volcanic Dub (2001) [FLAC]\11 - Volcanic.wav

Pre-gap length 0:00:01.73

Peak level 100.0 % Track quality 100.0 % Test CRC 8497E7B0 Copy CRC 8497E7B0 Track not present in AccurateRip database Copy OK

Track 12

Filename L:\RICOCHET\Documents\CD Archival Project\Reggae\Twiglight Circus Dub Sound System - Volcanic Dub (2001) [FLAC]\12 - Fams.wav

Pre-gap length 0:00:01.73

Peak level 100.0 % Track quality 100.0 % Test CRC F95C4597 Copy CRC F95C4597 Track not present in AccurateRip database Copy OK

None of the tracks are present in the AccurateRip database

No errors occurred

End of status report
 
REM GENRE ReggaeREM DATE 2001REM DISCID 8109C90CREM COMMENT "ExactAudioCopy v0.99pb5"PERFORMER "Twilight Circus Dub Sound System"TITLE "Volcanic Dub"FILE "01 - Lightning Strike.wav" WAVE TRACK 01 AUDIO TITLE "Lightning Strike" PERFORMER "Twilight Circus Dub Sound System" INDEX 01 00:00:00 TRACK 02 AUDIO TITLE "Rolling Thunder" PERFORMER "Twilight Circus Dub Sound System" INDEX 00 03:36:52FILE "02 - Rolling Thunder.wav" WAVE INDEX 01 00:00:00 TRACK 03 AUDIO TITLE "Spacehall" PERFORMER "Twilight Circus Dub Sound System" INDEX 00 03:30:40FILE "03 - Spacehall.wav" WAVE INDEX 01 00:00:00 TRACK 04 AUDIO TITLE "Floorshaker" PERFORMER "Twilight Circus Dub Sound System" INDEX 00 03:09:25FILE "04 - Floorshaker.wav" WAVE INDEX 01 00:00:00 TRACK 05 AUDIO TITLE "Dub Blast" PERFORMER "Twilight Circus Dub Sound System" INDEX 00 03:31:10FILE "05 - Dub Blast.wav" WAVE INDEX 01 00:00:00 TRACK 06 AUDIO TITLE "Seismic" PERFORMER "Twilight Circus Dub Sound System" INDEX 00 02:48:55FILE "06 - Seismic.wav" WAVE INDEX 01 00:00:00 TRACK 07 AUDIO TITLE "Dub Quake" PERFORMER "Twilight Circus Dub Sound System" INDEX 00 04:21:33FILE "07 - Dub Quake.wav" WAVE INDEX 01 00:00:00 TRACK 08 AUDIO TITLE "Flexi" PERFORMER "Twilight Circus Dub Sound System" INDEX 00 04:12:27FILE "08 - Flexi.wav" WAVE INDEX 01 00:00:00 TRACK 09 AUDIO TITLE "Keep Moving Dub" PERFORMER "Twilight Circus Dub Sound System" INDEX 00 03:09:13FILE "09 - Keep Moving Dub.wav" WAVE INDEX 01 00:00:00 TRACK 10 AUDIO TITLE "Lava Flow" PERFORMER "Twilight Circus Dub Sound System" INDEX 00 03:28:60FILE "10 - Lava Flow.wav" WAVE INDEX 01 00:00:00 TRACK 11 AUDIO TITLE "Volcanic" PERFORMER "Twilight Circus Dub Sound System" INDEX 00 03:32:00FILE "11 - Volcanic.wav" WAVE INDEX 01 00:00:00 TRACK 12 AUDIO TITLE "Fams" PERFORMER "Twilight Circus Dub Sound System" INDEX 00 03:02:25FILE "12 - Fams.wav" WAVE INDEX 01 00:00:00
Twilight Circus Dub Sound System – Dub Plates Vol. 3

Лейбл: M Records
Номер по каталогу: CD 210
Формат: CD, Album
Страна: Netherlands
Дата выхода: 15 Jun 2002
Жанр: Electronic, Reggae
Стиль: Dub
Аудиокодек: FLAC
Тип рипа: tracks+.cue
Битрейт аудио: lossless
Продолжительность: 41:04
Источник: cleepa, What.CD

Треклист:

01. Jah Steppa [3:29]
02. Session Plate [4:21]
03. Mega Hall [3:45]
04. Mad Groove [4:05]
05. Floor Plate [3:42]
06. Slicer Dub Plate [4:39]
07. A.P. Steppa [2:45]
08. Dub Otaku [3:54]
09. Travellin' [3:24]
10. Depth Charge Remix [3:40]
11. Binghi - Brain Melt Mix [3:21]
 
Exact Audio Copy V1.0 beta 1 from 15. November 2010

EAC extraction logfile from 27. December 2010, 13:16

Twilight Circus Dub Sound System / Dub Plates Vol. 3

Used drive : HL-DT-STDVD-RAM GH40L Adapter: 2 ID: 0

Read mode : SecureUtilize accurate stream : YesDefeat audio cache : YesMake use of C2 pointers : No

Read offset correction : 667Overread into Lead-In and Lead-Out : NoFill up missing offset samples with silence : YesDelete leading and trailing silent blocks : NoNull samples used in CRC calculations : YesUsed interface : Installed external ASPI interfaceGap handling : Appended to previous track

Used output format : User Defined EncoderSelected bitrate : 128 kBit/sQuality : HighAdd ID3 tag : NoCommand line compressor : C:\Program Files\Exact Audio Copy\Flac\flac.exeAdditional command line options : -V -8 -T "artist=%a" -T "title=%t" -T "album=%g" -T "date=%y" -T "tracknumber=%n" -T "genre=%m" %s

TOC of the extracted CD

Track | Start | Length | Start sector | End sector --------------------------------------------------------- 1 | 0:00.00 | 3:29.32 | 0 | 15706 2 | 3:29.32 | 4:20.63 | 15707 | 35269 3 | 7:50.20 | 3:45.10 | 35270 | 52154 4 | 11:35.30 | 4:04.62 | 52155 | 70516 5 | 15:40.17 | 3:41.45 | 70517 | 87136 6 | 19:21.62 | 4:38.70 | 87137 | 108056 7 | 24:00.57 | 2:45.25 | 108057 | 120456 8 | 26:46.07 | 3:53.73 | 120457 | 138004 9 | 30:40.05 | 3:23.55 | 138005 | 153284 10 | 34:03.60 | 3:39.57 | 153285 | 169766 11 | 37:43.42 | 3:21.18 | 169767 | 184859

Track 1

Filename H:\audio\temprip\01 - Twilight Circus Dub Sound System - Jah Steppa.wav

Pre-gap length 0:00:02.00

Peak level 100.0 % Extraction speed 1.8 X Track quality 100.0 % Test CRC AE303BFB Copy CRC AE303BFB Track not present in AccurateRip database Copy OK

Track 2

Filename H:\audio\temprip\02 - Twilight Circus Dub Sound System - Session Plate.wav

Pre-gap length 0:00:01.73

Peak level 100.0 % Extraction speed 2.0 X Track quality 100.0 % Test CRC DB959441 Copy CRC DB959441 Track not present in AccurateRip database Copy OK

Track 3

Filename H:\audio\temprip\03 - Twilight Circus Dub Sound System - Mega Hall.wav

Pre-gap length 0:00:01.73

Peak level 100.0 % Extraction speed 1.9 X Track quality 99.9 % Test CRC F5041CF5 Copy CRC F5041CF5 Track not present in AccurateRip database Copy OK

Track 4

Filename H:\audio\temprip\04 - Twilight Circus Dub Sound System - Mad Groove.wav

Pre-gap length 0:00:01.73

Peak level 100.0 % Extraction speed 2.4 X Track quality 100.0 % Test CRC 76B4372A Copy CRC 76B4372A Track not present in AccurateRip database Copy OK

Track 5

Filename H:\audio\temprip\05 - Twilight Circus Dub Sound System - Floor Plate.wav

Pre-gap length 0:00:01.73

Peak level 100.0 % Extraction speed 2.6 X Track quality 100.0 % Test CRC 0E8D6D95 Copy CRC 0E8D6D95 Track not present in AccurateRip database Copy OK

Track 6

Filename H:\audio\temprip\06 - Twilight Circus Dub Sound System - Slicer Dub Plate.wav

Pre-gap length 0:00:01.73

Peak level 100.0 % Extraction speed 2.5 X Track quality 99.9 % Test CRC 8CC1577B Copy CRC 8CC1577B Track not present in AccurateRip database Copy OK

Track 7

Filename H:\audio\temprip\07 - Twilight Circus Dub Sound System - A.P. Steppa.wav

Pre-gap length 0:00:01.73

Peak level 100.0 % Extraction speed 2.6 X Track quality 100.0 % Test CRC 0DFAC0BA Copy CRC 0DFAC0BA Track not present in AccurateRip database Copy OK

Track 8

Filename H:\audio\temprip\08 - Twilight Circus Dub Sound System - Dub Otaku.wav

Pre-gap length 0:00:01.73

Peak level 100.0 % Extraction speed 2.9 X Track quality 100.0 % Test CRC DCF0B691 Copy CRC DCF0B691 Track not present in AccurateRip database Copy OK

Track 9

Filename H:\audio\temprip\09 - Twilight Circus Dub Sound System - Travellin'.wav

Pre-gap length 0:00:01.73

Peak level 100.0 % Extraction speed 2.9 X Track quality 100.0 % Test CRC 61023572 Copy CRC 61023572 Track not present in AccurateRip database Copy OK

Track 10

Filename H:\audio\temprip\10 - Twilight Circus Dub Sound System - Depth Charge Remix.wav

Pre-gap length 0:00:01.73

Peak level 89.1 % Extraction speed 3.1 X Track quality 100.0 % Test CRC D1555520 Copy CRC D1555520 Track not present in AccurateRip database Copy OK

Track 11

Filename H:\audio\temprip\11 - Twilight Circus Dub Sound System - Binghi - Brain Melt Mix.wav

Pre-gap length 0:00:01.76

Peak level 100.0 % Extraction speed 2.8 X Track quality 99.9 % Test CRC 8ACFA408 Copy CRC 8ACFA408 Track not present in AccurateRip database Copy OK

None of the tracks are present in the AccurateRip database

No errors occurred

End of status report

==== Log checksum 1C95C5396D0DE7EB05447CFDF895F8E3457412300F3F6A3FAC18985C5156D97B ====
 
REM GENRE reggaeREM DATE 2002REM DISCID 8609A00BREM COMMENT "ExactAudioCopy v1.0b1"PERFORMER "Twilight Circus Dub Sound System"TITLE "Dub Plates Vol. 3"FILE "01 - Twilight Circus Dub Sound System - Jah Steppa.wav" WAVE TRACK 01 AUDIO TITLE "Jah Steppa" PERFORMER "Twilight Circus Dub Sound System" INDEX 01 00:00:00 TRACK 02 AUDIO TITLE "Session Plate" PERFORMER "Twilight Circus Dub Sound System" INDEX 00 03:27:52FILE "02 - Twilight Circus Dub Sound System - Session Plate.wav" WAVE INDEX 01 00:00:00 TRACK 03 AUDIO TITLE "Mega Hall" PERFORMER "Twilight Circus Dub Sound System" INDEX 00 04:19:08FILE "03 - Twilight Circus Dub Sound System - Mega Hall.wav" WAVE INDEX 01 00:00:00 TRACK 04 AUDIO TITLE "Mad Groove" PERFORMER "Twilight Circus Dub Sound System" INDEX 00 03:43:30FILE "04 - Twilight Circus Dub Sound System - Mad Groove.wav" WAVE INDEX 01 00:00:00 TRACK 05 AUDIO TITLE "Floor Plate" PERFORMER "Twilight Circus Dub Sound System" INDEX 00 04:03:07FILE "05 - Twilight Circus Dub Sound System - Floor Plate.wav" WAVE INDEX 01 00:00:00 TRACK 06 AUDIO TITLE "Slicer Dub Plate" PERFORMER "Twilight Circus Dub Sound System" INDEX 00 03:39:65FILE "06 - Twilight Circus Dub Sound System - Slicer Dub Plate.wav" WAVE INDEX 01 00:00:00 TRACK 07 AUDIO TITLE "A.P. Steppa" PERFORMER "Twilight Circus Dub Sound System" INDEX 00 04:37:15FILE "07 - Twilight Circus Dub Sound System - A.P. Steppa.wav" WAVE INDEX 01 00:00:00 TRACK 08 AUDIO TITLE "Dub Otaku" PERFORMER "Twilight Circus Dub Sound System" INDEX 00 02:43:45FILE "08 - Twilight Circus Dub Sound System - Dub Otaku.wav" WAVE INDEX 01 00:00:00 TRACK 09 AUDIO TITLE "Travellin'" PERFORMER "Twilight Circus Dub Sound System" INDEX 00 03:52:18FILE "09 - Twilight Circus Dub Sound System - Travellin'.wav" WAVE INDEX 01 00:00:00 TRACK 10 AUDIO TITLE "Depth Charge Remix" PERFORMER "Twilight Circus Dub Sound System" INDEX 00 03:22:00FILE "10 - Twilight Circus Dub Sound System - Depth Charge Remix.wav" WAVE INDEX 01 00:00:00 TRACK 11 AUDIO TITLE "Binghi - Brain Melt Mix" PERFORMER "Twilight Circus Dub Sound System" INDEX 00 03:38:00FILE "11 - Twilight Circus Dub Sound System - Binghi - Brain Melt Mix.wav" WAVE INDEX 01 00:00:00
Twilight Circus Dub Sound System – The Essential Collection

Лейбл: M Records
Номер по каталогу: CD 220
Формат: CD, Compilation
Страна: Netherlands
Год выхода: 2002
Жанр: Electronic, Reggae
Стиль: Dub
Аудиокодек: FLAC
Тип рипа: tracks+.cue
Битрейт аудио: lossless
Продолжительность: 46:12
Источник: Graciasfidel, What.CD

Треклист:

01. Wareika [4:27]
02. Lowell & Nine - Dub Plate [4:28]
03. Trinity [3:01]
04. Rolling Thunder [3:31]
05. Session Plate [4:16]
06. Shaka Version [3:37]
07. Horsie [4:08]
08. Fams [2:48]
09. Acetate [4:28]
10. Filter 13 [4:55]
11. Floorshaker [3:22]
12. Sir Dub [3:13]
 
Exact Audio Copy V0.99 prebeta 5 from 4. May 2009

EAC extraction logfile from 10. March 2010, 13:28

Twilight Circus Dub Sound System / The Essential Collection

Used drive : PIONEER DVD-RW DVR-110D Adapter: 1 ID: 0

Read mode : SecureUtilize accurate stream : YesDefeat audio cache : YesMake use of C2 pointers : No

Read offset correction : 48Overread into Lead-In and Lead-Out : NoFill up missing offset samples with silence : YesDelete leading and trailing silent blocks : NoNull samples used in CRC calculations : YesUsed interface : Installed external ASPI interfaceGap handling : Appended to previous track

Used output format : User Defined EncoderSelected bitrate : 128 kBit/sQuality : HighAdd ID3 tag : NoCommand line compressor : C:\Program Files\FLAC\flac.exeAdditional command line options : -V -8 -T "artist=%a" -T "title=%t" -T "album=%g" -T "date=%y" -T "tracknumber=%n" -T "genre=%m" %s

TOC of the extracted CD

Track | Start | Length | Start sector | End sector --------------------------------------------------------- 1 | 0:00.00 | 4:27.15 | 0 | 20039 2 | 4:27.15 | 4:27.70 | 20040 | 40134 3 | 8:55.10 | 3:00.52 | 40135 | 53686 4 | 11:55.62 | 3:30.73 | 53687 | 69509 5 | 15:26.60 | 4:15.62 | 69510 | 88696 6 | 19:42.47 | 3:36.45 | 88697 | 104941 7 | 23:19.17 | 4:07.55 | 104942 | 123521 8 | 27:26.72 | 2:47.38 | 123522 | 136084 9 | 30:14.35 | 4:27.52 | 136085 | 156161 10 | 34:42.12 | 4:55.10 | 156162 | 178296 11 | 39:37.22 | 3:22.23 | 178297 | 193469 12 | 42:59.45 | 3:12.60 | 193470 | 207929

Track 1

Filename C:\Documents and Settings\WinRip\Mes documents\EACRip\Twilight Circus Dub Sound System - The Essential Collection [FLAC]\01 - Wareika.wav

Pre-gap length 0:00:02.00

Peak level 100.0 % Track quality 100.0 % Test CRC B861E4E3 Copy CRC B861E4E3 Track not present in AccurateRip database Copy OK

Track 2

Filename C:\Documents and Settings\WinRip\Mes documents\EACRip\Twilight Circus Dub Sound System - The Essential Collection [FLAC]\02 - Lowell & Nine - Dub Plate.wav

Pre-gap length 0:00:01.73

Peak level 100.0 % Track quality 100.0 % Test CRC 953F19A9 Copy CRC 953F19A9 Track not present in AccurateRip database Copy OK

Track 3

Filename C:\Documents and Settings\WinRip\Mes documents\EACRip\Twilight Circus Dub Sound System - The Essential Collection [FLAC]\03 - Trinity.wav

Pre-gap length 0:00:01.73

Peak level 100.0 % Track quality 100.0 % Test CRC DB991558 Copy CRC DB991558 Track not present in AccurateRip database Copy OK

Track 4

Filename C:\Documents and Settings\WinRip\Mes documents\EACRip\Twilight Circus Dub Sound System - The Essential Collection [FLAC]\04 - Rolling Thunder.wav

Pre-gap length 0:00:01.73

Peak level 100.0 % Track quality 100.0 % Test CRC 7492BDF7 Copy CRC 7492BDF7 Track not present in AccurateRip database Copy OK

Track 5

Filename C:\Documents and Settings\WinRip\Mes documents\EACRip\Twilight Circus Dub Sound System - The Essential Collection [FLAC]\05 - Session Plate.wav

Pre-gap length 0:00:01.77

Peak level 100.0 % Track quality 100.0 % Test CRC C1BE73C8 Copy CRC C1BE73C8 Track not present in AccurateRip database Copy OK

Track 6

Filename C:\Documents and Settings\WinRip\Mes documents\EACRip\Twilight Circus Dub Sound System - The Essential Collection [FLAC]\06 - Shaka Version.wav

Pre-gap length 0:00:01.73

Peak level 79.4 % Track quality 100.0 % Test CRC CB8149A5 Copy CRC CB8149A5 Track not present in AccurateRip database Copy OK

Track 7

Filename C:\Documents and Settings\WinRip\Mes documents\EACRip\Twilight Circus Dub Sound System - The Essential Collection [FLAC]\07 - Horsie.wav

Pre-gap length 0:00:01.73

Peak level 100.0 % Track quality 99.9 % Test CRC C04DB0C7 Copy CRC C04DB0C7 Track not present in AccurateRip database Copy OK

Track 8

Filename C:\Documents and Settings\WinRip\Mes documents\EACRip\Twilight Circus Dub Sound System - The Essential Collection [FLAC]\08 - Fams.wav

Pre-gap length 0:00:01.73

Peak level 100.0 % Track quality 100.0 % Test CRC 4AB52CC0 Copy CRC 4AB52CC0 Track not present in AccurateRip database Copy OK

Track 9

Filename C:\Documents and Settings\WinRip\Mes documents\EACRip\Twilight Circus Dub Sound System - The Essential Collection [FLAC]\09 - Acetate.wav

Pre-gap length 0:00:01.73

Peak level 100.0 % Track quality 100.0 % Test CRC BABFA8A7 Copy CRC BABFA8A7 Track not present in AccurateRip database Copy OK

Track 10

Filename C:\Documents and Settings\WinRip\Mes documents\EACRip\Twilight Circus Dub Sound System - The Essential Collection [FLAC]\10 - Filter 13.wav

Pre-gap length 0:00:01.73

Peak level 100.0 % Track quality 100.0 % Test CRC D45DA9A9 Copy CRC D45DA9A9 Track not present in AccurateRip database Copy OK

Track 11

Filename C:\Documents and Settings\WinRip\Mes documents\EACRip\Twilight Circus Dub Sound System - The Essential Collection [FLAC]\11 - Floorshaker.wav

Pre-gap length 0:00:01.73

Peak level 100.0 % Track quality 100.0 % Test CRC 03C25AC1 Copy CRC 03C25AC1 Track not present in AccurateRip database Copy OK

Track 12

Filename C:\Documents and Settings\WinRip\Mes documents\EACRip\Twilight Circus Dub Sound System - The Essential Collection [FLAC]\12 - Sir Dub.wav

Pre-gap length 0:00:01.73

Peak level 100.0 % Track quality 100.0 % Test CRC 0C17B344 Copy CRC 0C17B344 Track not present in AccurateRip database Copy OK

None of the tracks are present in the AccurateRip database

No errors occurred

End of status report
 
REM GENRE ReggaeREM DATE 2002PERFORMER "Twilight Circus Dub Sound System"TITLE "The Essential Collection"FILE "01 - Wareika.wav" WAVE TRACK 01 AUDIO TITLE "Wareika" INDEX 01 00:00:00FILE "02 - Lowell & Nine - Dub Plate.wav" WAVE TRACK 02 AUDIO TITLE "Lowell & Nine - Dub Plate" INDEX 01 00:00:00FILE "03 - Trinity.wav" WAVE TRACK 03 AUDIO TITLE "Trinity" INDEX 01 00:00:00FILE "04 - Rolling Thunder.wav" WAVE TRACK 04 AUDIO TITLE "Rolling Thunder" INDEX 01 00:00:00FILE "05 - Session Plate.wav" WAVE TRACK 05 AUDIO TITLE "Session Plate" INDEX 01 00:00:00FILE "06 - Shaka Version.wav" WAVE TRACK 06 AUDIO TITLE "Shaka Version" INDEX 01 00:00:00FILE "07 - Horsie.wav" WAVE TRACK 07 AUDIO TITLE "Horsie" INDEX 01 00:00:00FILE "08 - Fams.wav" WAVE TRACK 08 AUDIO TITLE "Fams" INDEX 01 00:00:00FILE "09 - Acetate.wav" WAVE TRACK 09 AUDIO TITLE "Acetate" INDEX 01 00:00:00FILE "10 - Filter 13.wav" WAVE TRACK 10 AUDIO TITLE "Filter 13" INDEX 01 00:00:00FILE "11 - Floorshaker.wav" WAVE TRACK 11 AUDIO TITLE "Floorshaker" INDEX 01 00:00:00FILE "12 - Sir Dub.wav" WAVE TRACK 12 AUDIO TITLE "Sir Dub" INDEX 01 00:00:00
Twilight Circus Dub Sound System – Foundation Rockers

Лейбл: M Records
Номер по каталогу: CD 250
Формат: CD, Album
Страна: Netherlands
Год выхода: Nov 2003
Жанр: Electronic, Reggae
Стиль: Dub
Аудиокодек: FLAC
Тип рипа: tracks+.cue
Битрейт аудио: lossless
Продолжительность: 48:39
Источник: cleepa, What.CD

Треклист:

01. Love Is What We Need [4:09]
02. Dub Is What We Need [4:06]
03. What We Got To Do [4:21]
04. World In Trouble [3:50]
05. Alpha Skank [3:14]
06. Dub Selector [3:38]
07. Foundation Rockers [3:20]
08. No Burial [5:01]
09. Blue Motion [4:24]
10. Jericho Dub [3:56]
11. Love Dub Remix [4:05]
12. What We Got To Do (Acoustic Mix) [4:35]
 
Exact Audio Copy V1.0 beta 1 from 15. November 2010

EAC extraction logfile from 27. December 2010, 16:05

Twilight Circus Dub Sound System / Foundation Rockers

Used drive : HL-DT-STDVD-RAM GH40L Adapter: 2 ID: 0

Read mode : SecureUtilize accurate stream : YesDefeat audio cache : YesMake use of C2 pointers : No

Read offset correction : 667Overread into Lead-In and Lead-Out : NoFill up missing offset samples with silence : YesDelete leading and trailing silent blocks : NoNull samples used in CRC calculations : YesUsed interface : Installed external ASPI interfaceGap handling : Appended to previous track

Used output format : User Defined EncoderSelected bitrate : 128 kBit/sQuality : HighAdd ID3 tag : NoCommand line compressor : C:\Program Files\Exact Audio Copy\Flac\flac.exeAdditional command line options : -V -8 -T "artist=%a" -T "title=%t" -T "album=%g" -T "date=%y" -T "tracknumber=%n" -T "genre=%m" %s

TOC of the extracted CD

Track | Start | Length | Start sector | End sector --------------------------------------------------------- 1 | 0:00.72 | 4:08.43 | 72 | 18714 2 | 4:09.40 | 4:06.20 | 18715 | 37184 3 | 8:15.60 | 4:21.20 | 37185 | 56779 4 | 12:37.05 | 3:50.32 | 56780 | 74061 5 | 16:27.37 | 3:14.23 | 74062 | 88634 6 | 19:41.60 | 3:37.42 | 88635 | 104951 7 | 23:19.27 | 3:20.10 | 104952 | 119961 8 | 26:39.37 | 5:00.60 | 119962 | 142521 9 | 31:40.22 | 4:24.03 | 142522 | 162324 10 | 36:04.25 | 3:55.40 | 162325 | 179989 11 | 39:59.65 | 4:04.70 | 179990 | 198359 12 | 44:04.60 | 4:35.17 | 198360 | 219001

Track 1

Filename H:\audio\temprip\01 - Twilight Circus Dub Sound System - Love Is What We Need.wav

Pre-gap length 0:00:02.96

Peak level 100.0 % Extraction speed 1.8 X Track quality 100.0 % Test CRC 9D890AE0 Copy CRC 9D890AE0 Accurately ripped (confidence 1) [89F64DEF] Copy OK

Track 2

Filename H:\audio\temprip\02 - Twilight Circus Dub Sound System - Dub Is What We Need.wav

Pre-gap length 0:00:01.73

Peak level 89.1 % Extraction speed 2.0 X Track quality 100.0 % Test CRC 8398632E Copy CRC 8398632E Accurately ripped (confidence 1) [8714FFBB] Copy OK

Track 3

Filename H:\audio\temprip\03 - Twilight Circus Dub Sound System - What We Got To Do.wav

Pre-gap length 0:00:01.73

Peak level 100.0 % Extraction speed 2.3 X Track quality 100.0 % Test CRC F2F5B53F Copy CRC F2F5B53F Accurately ripped (confidence 1) [ADD01CAE] Copy OK

Track 4

Filename H:\audio\temprip\04 - Twilight Circus Dub Sound System - World In Trouble.wav

Pre-gap length 0:00:01.73

Peak level 100.0 % Extraction speed 2.4 X Track quality 100.0 % Test CRC 8CC3ABCC Copy CRC 8CC3ABCC Accurately ripped (confidence 1) [60BC37F5] Copy OK

Track 5

Filename H:\audio\temprip\05 - Twilight Circus Dub Sound System - Alpha Skank.wav

Pre-gap length 0:00:01.73

Peak level 100.0 % Extraction speed 2.5 X Track quality 100.0 % Test CRC C86947BE Copy CRC C86947BE Accurately ripped (confidence 1) [E72D6256] Copy OK

Track 6

Filename H:\audio\temprip\06 - Twilight Circus Dub Sound System - Dub Selector.wav

Pre-gap length 0:00:01.73

Peak level 89.1 % Extraction speed 2.7 X Track quality 100.0 % Test CRC E631C999 Copy CRC E631C999 Accurately ripped (confidence 1) [E46DB764] Copy OK

Track 7

Filename H:\audio\temprip\07 - Twilight Circus Dub Sound System - Foundation Rockers.wav

Pre-gap length 0:00:01.73

Peak level 89.1 % Extraction speed 2.7 X Track quality 100.0 % Test CRC C0DD2225 Copy CRC C0DD2225 Accurately ripped (confidence 1) [049E4D77] Copy OK

Track 8

Filename H:\audio\temprip\08 - Twilight Circus Dub Sound System - No Burial.wav

Pre-gap length 0:00:01.76

Peak level 100.0 % Extraction speed 3.0 X Track quality 100.0 % Test CRC FC0FB136 Copy CRC FC0FB136 Accurately ripped (confidence 1) [79A7E603] Copy OK

Track 9

Filename H:\audio\temprip\09 - Twilight Circus Dub Sound System - Blue Motion.wav

Pre-gap length 0:00:01.73

Peak level 89.1 % Extraction speed 3.2 X Track quality 100.0 % Test CRC ADF63D14 Copy CRC ADF63D14 Accurately ripped (confidence 1) [331DE336] Copy OK

Track 10

Filename H:\audio\temprip\10 - Twilight Circus Dub Sound System - Jericho Dub.wav

Pre-gap length 0:00:01.73

Peak level 89.1 % Extraction speed 3.3 X Track quality 100.0 % Test CRC ADB1976C Copy CRC ADB1976C Accurately ripped (confidence 1) [B3A39C39] Copy OK

Track 11

Filename H:\audio\temprip\11 - Twilight Circus Dub Sound System - Love Dub Remix.wav

Pre-gap length 0:00:01.73

Peak level 89.1 % Extraction speed 3.3 X Track quality 100.0 % Test CRC 2E02A4E4 Copy CRC 2E02A4E4 Accurately ripped (confidence 1) [65A1F229] Copy OK

Track 12

Filename H:\audio\temprip\12 - Twilight Circus Dub Sound System - What We Got To Do (Acoustic Mix).wav

Pre-gap length 0:00:01.73

Peak level 100.0 % Extraction speed 3.6 X Track quality 100.0 % Test CRC B294D4BC Copy CRC B294D4BC Accurately ripped (confidence 1) [9948DBED] Copy OK

All tracks accurately ripped

No errors occurred

End of status report

==== Log checksum 22493AF0537E68ABB244F6A66D8A24E3960DEEF06E31E21BBD522A7D21275160 ====
 
REM GENRE "Reggae, Dub"REM DATE 2003REM DISCID 9C0B680CREM COMMENT "ExactAudioCopy v1.0b1"PERFORMER "Twilight Circus Dub Sound System"TITLE "Foundation Rockers"FILE "01 - Twilight Circus Dub Sound System - Love Is What We Need.wav" WAVE TRACK 01 AUDIO TITLE "Love Is What We Need" PERFORMER "Twilight Circus Dub Sound System" PREGAP 00:00:72 INDEX 01 00:00:00 TRACK 02 AUDIO TITLE "Dub Is What We Need" PERFORMER "Twilight Circus Dub Sound System" INDEX 00 04:06:63FILE "02 - Twilight Circus Dub Sound System - Dub Is What We Need.wav" WAVE INDEX 01 00:00:00 TRACK 03 AUDIO TITLE "What We Got To Do" PERFORMER "Twilight Circus Dub Sound System" INDEX 00 04:04:40FILE "03 - Twilight Circus Dub Sound System - What We Got To Do.wav" WAVE INDEX 01 00:00:00 TRACK 04 AUDIO TITLE "World In Trouble" PERFORMER "Twilight Circus Dub Sound System" INDEX 00 04:19:40FILE "04 - Twilight Circus Dub Sound System - World In Trouble.wav" WAVE INDEX 01 00:00:00 TRACK 05 AUDIO TITLE "Alpha Skank" PERFORMER "Twilight Circus Dub Sound System" INDEX 00 03:48:52FILE "05 - Twilight Circus Dub Sound System - Alpha Skank.wav" WAVE INDEX 01 00:00:00 TRACK 06 AUDIO TITLE "Dub Selector" PERFORMER "Twilight Circus Dub Sound System" INDEX 00 03:12:43FILE "06 - Twilight Circus Dub Sound System - Dub Selector.wav" WAVE INDEX 01 00:00:00 TRACK 07 AUDIO TITLE "Foundation Rockers" PERFORMER "Twilight Circus Dub Sound System" INDEX 00 03:35:62FILE "07 - Twilight Circus Dub Sound System - Foundation Rockers.wav" WAVE INDEX 01 00:00:00 TRACK 08 AUDIO TITLE "No Burial" PERFORMER "Twilight Circus Dub Sound System" INDEX 00 03:18:28FILE "08 - Twilight Circus Dub Sound System - No Burial.wav" WAVE INDEX 01 00:00:00 TRACK 09 AUDIO TITLE "Blue Motion" PERFORMER "Twilight Circus Dub Sound System" INDEX 00 04:59:05FILE "09 - Twilight Circus Dub Sound System - Blue Motion.wav" WAVE INDEX 01 00:00:00 TRACK 10 AUDIO TITLE "Jericho Dub" PERFORMER "Twilight Circus Dub Sound System" INDEX 00 04:22:23FILE "10 - Twilight Circus Dub Sound System - Jericho Dub.wav" WAVE INDEX 01 00:00:00 TRACK 11 AUDIO TITLE "Love Dub Remix" PERFORMER "Twilight Circus Dub Sound System" INDEX 00 03:53:60FILE "11 - Twilight Circus Dub Sound System - Love Dub Remix.wav" WAVE INDEX 01 00:00:00 TRACK 12 AUDIO TITLE "What We Got To Do (Acoustic Mix)" PERFORMER "Twilight Circus Dub Sound System" INDEX 00 04:03:15FILE "12 - Twilight Circus Dub Sound System - What We Got To Do (Acoustic Mix).wav" WAVE INDEX 01 00:00:00
Twilight Circus – Dub From The Secret Vaults

Лейбл: ROIR (Reachout International Records)
Номер по каталогу: RUSHCD 8285
Формат: CD, Album
Страна: US
Год выхода: 2004
Жанр: Electronic, Reggae
Стиль: Dub
Аудиокодек: FLAC
Тип рипа: tracks+.cue
Битрейт аудио: lossless
Продолжительность: 44:25
Источник: codysampson, What.CD

Треклист:

01. Big Youth Intro [0:15]
02. One Drop [3:33]
03. The Groove [4:18]
04. K2500 [4:09]
05. Achou [3:48]
06. Slyy [4:30]
07. Bassie Dub I [2:15]
08. Other Worlds Of Dub [3:54]
09. East Of Memphis [1:41]
10. Electric Africa [4:22]
11. Twilight C Meets Tommy Z (Heartbeat Riddim) [4:24]
12. Bassie Dub II [2:51]
13. Lift Off [2:14]
14. Space Dust [2:11]
 
Exact Audio Copy V0.99 prebeta 5 from 4. May 2009

EAC extraction logfile from 19. November 2009, 23:00

Twilight Circus Dub Sound System / Dub From The Secret Vaults

Used drive : TSSTcorpCD/DVDW TS-H552B Adapter: 1 ID: 0

Read mode : SecureUtilize accurate stream : YesDefeat audio cache : YesMake use of C2 pointers : No

Read offset correction : 12Overread into Lead-In and Lead-Out : NoFill up missing offset samples with silence : YesDelete leading and trailing silent blocks : NoNull samples used in CRC calculations : YesUsed interface : Native Win32 interface for Win NT & 2000Gap handling : Appended to previous track

Used output format : User Defined EncoderSelected bitrate : 768 kBit/sQuality : HighAdd ID3 tag : NoCommand line compressor : C:\Program Files\Exact Audio Copy\FLAC\FLAC.EXEAdditional command line options : -6 -V -T "ARTIST=%a" -T "TITLE=%t" -T "ALBUM=%g" -T "DATE=%y" -T "TRACKNUMBER=%n" -T "GENRE=%m" -T "COMMENT=%e" %s -o %d

TOC of the extracted CD

Track | Start | Length | Start sector | End sector --------------------------------------------------------- 1 | 0:00.72 | 0:14.48 | 72 | 1169 2 | 0:15.45 | 3:32.50 | 1170 | 17119 3 | 3:48.20 | 4:18.17 | 17120 | 36486 4 | 8:06.37 | 4:08.38 | 36487 | 55124 5 | 12:15.00 | 3:48.17 | 55125 | 72241 6 | 16:03.17 | 4:30.13 | 72242 | 92504 7 | 20:33.30 | 2:15.05 | 92505 | 102634 8 | 22:48.35 | 3:54.15 | 102635 | 120199 9 | 26:42.50 | 1:41.00 | 120200 | 127774 10 | 28:23.50 | 4:22.17 | 127775 | 147441 11 | 32:45.67 | 4:24.30 | 147442 | 167271 12 | 37:10.22 | 2:50.48 | 167272 | 180069 13 | 40:00.70 | 2:14.17 | 180070 | 190136 14 | 42:15.12 | 2:11.13 | 190137 | 199974

Track 1

Filename E:\My Music\STMusic-What.CD\01 - Big Youth Intro.wav

Pre-gap length 0:00:02.96

Peak level 99.1 % Track quality 100.0 % Test CRC FF7AF1DC Copy CRC FF7AF1DC Track not present in AccurateRip database Copy OK

Track 2

Filename E:\My Music\STMusic-What.CD\02 - One Drop.wav

Pre-gap length 0:00:00.09

Peak level 100.0 % Track quality 100.0 % Test CRC C75415E8 Copy CRC C75415E8 Track not present in AccurateRip database Copy OK

Track 3

Filename E:\My Music\STMusic-What.CD\03 - The Groove.wav

Pre-gap length 0:00:01.73

Peak level 100.0 % Track quality 100.0 % Test CRC 5AB6AF49 Copy CRC 5AB6AF49 Track not present in AccurateRip database Copy OK

Track 4

Filename E:\My Music\STMusic-What.CD\04 - K2500.wav

Pre-gap length 0:00:01.73

Peak level 100.0 % Track quality 100.0 % Test CRC 689E32B8 Copy CRC 689E32B8 Track not present in AccurateRip database Copy OK

Track 5

Filename E:\My Music\STMusic-What.CD\05 - Achou.wav

Pre-gap length 0:00:01.73

Peak level 100.0 % Track quality 100.0 % Test CRC 52F9A0A5 Copy CRC 52F9A0A5 Track not present in AccurateRip database Copy OK

Track 6

Filename E:\My Music\STMusic-What.CD\06 - Slyy.wav

Pre-gap length 0:00:01.73

Peak level 100.0 % Track quality 100.0 % Test CRC 156C8BC6 Copy CRC 156C8BC6 Track not present in AccurateRip database Copy OK

Track 7

Filename E:\My Music\STMusic-What.CD\07 - Bassie Dub I.wav

Pre-gap length 0:00:01.73

Peak level 100.0 % Track quality 100.0 % Test CRC 2DBBAC9C Copy CRC 2DBBAC9C Track not present in AccurateRip database Copy OK

Track 8

Filename E:\My Music\STMusic-What.CD\08 - Other Worlds Of Dub.wav

Pre-gap length 0:00:01.73

Peak level 100.0 % Track quality 100.0 % Test CRC 37523CE6 Copy CRC 37523CE6 Track not present in AccurateRip database Copy OK

Track 9

Filename E:\My Music\STMusic-What.CD\09 - East Of Memphis.wav

Pre-gap length 0:00:01.73

Peak level 100.0 % Track quality 100.0 % Test CRC A77AC147 Copy CRC A77AC147 Track not present in AccurateRip database Copy OK

Track 10

Filename E:\My Music\STMusic-What.CD\10 - Electric Africa.wav

Pre-gap length 0:00:01.73

Peak level 100.0 % Track quality 100.0 % Test CRC 7038F63C Copy CRC 7038F63C Track not present in AccurateRip database Copy OK

Track 11

Filename E:\My Music\STMusic-What.CD\11 - Twilight C Meets Tommy Z (Heartbeat Riddim).wav

Pre-gap length 0:00:01.73

Peak level 100.0 % Track quality 100.0 % Test CRC 0AA2E17C Copy CRC 0AA2E17C Track not present in AccurateRip database Copy OK

Track 12

Filename E:\My Music\STMusic-What.CD\12 - Bassie Dub II.wav

Pre-gap length 0:00:01.73

Peak level 100.0 % Track quality 100.0 % Test CRC 6D83B24D Copy CRC 6D83B24D Track not present in AccurateRip database Copy OK

Track 13

Filename E:\My Music\STMusic-What.CD\13 - Lift Off.wav

Pre-gap length 0:00:01.73

Peak level 100.0 % Track quality 100.0 % Test CRC 7039F4B0 Copy CRC 7039F4B0 Track not present in AccurateRip database Copy OK

Track 14

Filename E:\My Music\STMusic-What.CD\14 - Space Dust.wav

Pre-gap length 0:00:00.93

Peak level 100.0 % Track quality 99.9 % Test CRC B4E74B44 Copy CRC B4E74B44 Track not present in AccurateRip database Copy OK

None of the tracks are present in the AccurateRip database

No errors occurred

End of status report
 
REM GENRE DubREM DATE 2004REM DISCID AF0A6A0EREM COMMENT "ExactAudioCopy v0.99pb5"FILE "01 - Big Youth Intro.wav" WAVE TRACK 01 AUDIO PREGAP 00:00:72 INDEX 01 00:00:00 TRACK 02 AUDIO INDEX 00 00:14:41FILE "02 - One Drop.wav" WAVE INDEX 01 00:00:00 TRACK 03 AUDIO INDEX 00 03:30:70FILE "03 - The Groove.wav" WAVE INDEX 01 00:00:00 TRACK 04 AUDIO INDEX 00 04:16:37FILE "04 - K2500.wav" WAVE INDEX 01 00:00:00 TRACK 05 AUDIO INDEX 00 04:06:58FILE "05 - Achou.wav" WAVE INDEX 01 00:00:00 TRACK 06 AUDIO INDEX 00 03:46:37FILE "06 - Slyy.wav" WAVE INDEX 01 00:00:00 TRACK 07 AUDIO INDEX 00 04:28:33FILE "07 - Bassie Dub I.wav" WAVE INDEX 01 00:00:00 TRACK 08 AUDIO INDEX 00 02:13:25FILE "08 - Other Worlds Of Dub.wav" WAVE INDEX 01 00:00:00 TRACK 09 AUDIO INDEX 00 03:52:35FILE "09 - East Of Memphis.wav" WAVE INDEX 01 00:00:00 TRACK 10 AUDIO INDEX 00 01:39:20FILE "10 - Electric Africa.wav" WAVE INDEX 01 00:00:00 TRACK 11 AUDIO INDEX 00 04:20:37FILE "11 - Twilight C Meets Tommy Z (Heartbeat Riddim).wav" WAVE INDEX 01 00:00:00 TRACK 12 AUDIO INDEX 00 04:22:50FILE "12 - Bassie Dub II.wav" WAVE INDEX 01 00:00:00 TRACK 13 AUDIO INDEX 00 02:48:68FILE "13 - Lift Off.wav" WAVE INDEX 01 00:00:00 TRACK 14 AUDIO INDEX 00 02:13:22FILE "14 - Space Dust.wav" WAVE INDEX 01 00:00:00
Twilight Circus Dub Sound System – Remixed: Abstract Beats

Лейбл: M Records
Номер по каталогу: MCD 320
Формат: CD, Compilation
Страна: Netherlands
Год выхода: 2004
Жанр: Electronic
Стиль: Dub, IDM, Breakbeat, Electro, Downtempo, Abstract
Аудиокодек: FLAC
Тип рипа: tracks+.cue
Битрейт аудио: lossless
Продолжительность: 59:39
Источник: girind, What.CD

Треклист:

01. Carlton - Abintra Remix [4:58]
02. Rolling Thunder - Parice Scott Minor Remix [3:26]
03. The Ride - DMX Krew Club Mix [4:01]
04. UK Steppers - Phil Western Remix [6:13]
05. 808 - GYS Remix [5:31]
06. Kik - Solex 'Kiks For Niks' Remix [3:39]
07. Dance - DJ Swingsett & Takuya 'Lickshot' Remix [5:58]
08. Porno - 3rd Eye Tribe 'In The Light Of The Twilight' Remix [6:02]
09. Highway - Meat Beat Manifesto Remix [5:36]
10. Shaka - Alter Echo Remix [3:54]
11. Arabix - Uchida Naoyuki Remix (feat. Goma Da Digeridoo) [4:12]
12. Fams - Jackdrag Remix [6:09]
 
EAC extraction logfile from 7. April 2007, 21:26 for CDTwilight Circus Dub Sound System / Remixed: Abstract Beats

Used drive : LITE-ON DVDRW SOHW-812S Adapter: 1 ID: 1Read mode : Secure with NO C2, accurate stream, disable cacheRead offset correction : 12Overread into Lead-In and Lead-Out : No

Used output format : C:\Program Files\flac\flac.exe (User Defined Encoder) 192 kBit/s Additional command line options : -T "artist=%a" -T "title=%t" -T "album=%g" -T "date=%y" -T "tracknumber=%n" -T "genre=%m" %s

Other options : Fill up missing offset samples with silence : Yes Delete leading and trailing silent blocks : No Native Win32 interface for Win NT & 2000

Track 1 Filename D:\Audio\rips\Twilight Circus Dub Sound System\Remixed_ Abstract Beats\01 Carlton - Abintra Remix.wav

Pre-gap length 0:00:02.96

Peak level 100.0 % Track quality 100.0 % Test CRC BF67C8E7 Copy CRC BF67C8E7 Copy OK

Track 2 Filename D:\Audio\rips\Twilight Circus Dub Sound System\Remixed_ Abstract Beats\02 Rolling Thunder - Parice Scott Minor Remix.wav

Pre-gap length 0:00:01.73

Peak level 79.4 % Track quality 100.0 % Test CRC 04087637 Copy CRC 04087637 Copy OK

Track 3 Filename D:\Audio\rips\Twilight Circus Dub Sound System\Remixed_ Abstract Beats\03 The Ride - DMX Krew Club Mix.wav

Pre-gap length 0:00:01.73

Peak level 99.8 % Track quality 100.0 % Test CRC E012A536 Copy CRC E012A536 Copy OK

Track 4 Filename D:\Audio\rips\Twilight Circus Dub Sound System\Remixed_ Abstract Beats\04 UK Steppers - Phil Western Remix.wav

Pre-gap length 0:00:01.73

Peak level 100.0 % Track quality 100.0 % Test CRC AB9D95A4 Copy CRC AB9D95A4 Copy OK

Track 5 Filename D:\Audio\rips\Twilight Circus Dub Sound System\Remixed_ Abstract Beats\05 808 - GYS Remix.wav

Pre-gap length 0:00:01.73

Peak level 99.2 % Track quality 100.0 % Test CRC 49D99191 Copy CRC 49D99191 Copy OK

Track 6 Filename D:\Audio\rips\Twilight Circus Dub Sound System\Remixed_ Abstract Beats\06 Kik - Solex 'Kiks For Niks' Remix.wav

Pre-gap length 0:00:01.73

Peak level 79.4 % Track quality 100.0 % Test CRC FC8E43D6 Copy CRC FC8E43D6 Copy OK

Track 7 Filename D:\Audio\rips\Twilight Circus Dub Sound System\Remixed_ Abstract Beats\07 Dance - DJ Swingsett & Takuya 'Lickshot' Remix.wav

Pre-gap length 0:00:01.73

Peak level 96.0 % Track quality 100.0 % Test CRC 2D4C983D Copy CRC 2D4C983D Copy OK

Track 8 Filename D:\Audio\rips\Twilight Circus Dub Sound System\Remixed_ Abstract Beats\08 Porno - 3rd Eye Tribe 'In The Light Of The Twilight' Remix.wav

Pre-gap length 0:00:01.73

Peak level 99.7 % Track quality 100.0 % Test CRC 36FE2918 Copy CRC 36FE2918 Copy OK

Track 9 Filename D:\Audio\rips\Twilight Circus Dub Sound System\Remixed_ Abstract Beats\09 Highway - Meat Beat Manifesto Remix.wav

Pre-gap length 0:00:01.73

Peak level 77.8 % Track quality 100.0 % Test CRC E2B7881B Copy CRC E2B7881B Copy OK

Track 10 Filename D:\Audio\rips\Twilight Circus Dub Sound System\Remixed_ Abstract Beats\10 Shaka - Alter Echo Remix.wav

Pre-gap length 0:00:01.73

Peak level 79.4 % Track quality 100.0 % Test CRC 03928895 Copy CRC 03928895 Copy OK

Track 11 Filename D:\Audio\rips\Twilight Circus Dub Sound System\Remixed_ Abstract Beats\11 Arabix - Uchida Naoyuki Remix (feat. Goma Da Digeridoo).wav

Pre-gap length 0:00:01.73

Peak level 79.4 % Track quality 100.0 % Test CRC 72A701D5 Copy CRC 72A701D5 Copy OK

Track 12 Filename D:\Audio\rips\Twilight Circus Dub Sound System\Remixed_ Abstract Beats\12 Fams - Jackdrag Remix.wav

Pre-gap length 0:00:01.73

Peak level 100.0 % Track quality 100.0 % Test CRC 4E3E5156 Copy CRC 4E3E5156 Copy OK

No errors occured

End of status report
 
REM GENRE DubREM DATE 2004REM DISCID 8F0DFC0CREM COMMENT "ExactAudioCopy v0.95b3"PERFORMER "Twilight Circus Dub Sound System"TITLE "Remixed: Abstract Beats"FILE "01 Carlton - Abintra Remix.wav" WAVE TRACK 01 AUDIO TITLE "Carlton - Abintra Remix" PERFORMER "Twilight Circus Dub Sound System" PREGAP 00:00:72 INDEX 01 00:00:00 TRACK 02 AUDIO TITLE "Rolling Thunder - Parice Scott Minor Remix" PERFORMER "Twilight Circus Dub Sound System" INDEX 00 04:56:50FILE "02 Rolling Thunder - Parice Scott Minor Remix.wav" WAVE INDEX 01 00:00:00 TRACK 03 AUDIO TITLE "The Ride - DMX Krew Club Mix" PERFORMER "Twilight Circus Dub Sound System" INDEX 00 03:24:48FILE "03 The Ride - DMX Krew Club Mix.wav" WAVE INDEX 01 00:00:00 TRACK 04 AUDIO TITLE "UK Steppers - Phil Western Remix" PERFORMER "Twilight Circus Dub Sound System" INDEX 00 03:59:12FILE "04 UK Steppers - Phil Western Remix.wav" WAVE INDEX 01 00:00:00 TRACK 05 AUDIO TITLE "808 - GYS Remix" PERFORMER "Twilight Circus Dub Sound System" INDEX 00 06:11:20FILE "05 808 - GYS Remix.wav" WAVE INDEX 01 00:00:00 TRACK 06 AUDIO TITLE "Kik - Solex 'Kiks For Niks' Remix" PERFORMER "Twilight Circus Dub Sound System" INDEX 00 05:29:03FILE "06 Kik - Solex 'Kiks For Niks' Remix.wav" WAVE INDEX 01 00:00:00 TRACK 07 AUDIO TITLE "Dance - DJ Swingsett & Takuya 'Lickshot' Remix" PERFORMER "Twilight Circus Dub Sound System" INDEX 00 03:37:12FILE "07 Dance - DJ Swingsett & Takuya 'Lickshot' Remix.wav" WAVE INDEX 01 00:00:00 TRACK 08 AUDIO TITLE "Porno - 3rd Eye Tribe 'In The Light Of The Twilight' Remix" PERFORMER "Twilight Circus Dub Sound System" INDEX 00 05:56:50FILE "08 Porno - 3rd Eye Tribe 'In The Light Of The Twilight' Remix.wav" WAVE INDEX 01 00:00:00 TRACK 09 AUDIO TITLE "Highway - Meat Beat Manifesto Remix" PERFORMER "Twilight Circus Dub Sound System" INDEX 00 06:00:50FILE "09 Highway - Meat Beat Manifesto Remix.wav" WAVE INDEX 01 00:00:00 TRACK 10 AUDIO TITLE "Shaka - Alter Echo Remix" PERFORMER "Twilight Circus Dub Sound System" INDEX 00 05:33:65FILE "10 Shaka - Alter Echo Remix.wav" WAVE INDEX 01 00:00:00 TRACK 11 AUDIO TITLE "Arabix - Uchida Naoyuki Remix (feat. Goma Da Digeridoo)" PERFORMER "Twilight Circus Dub Sound System" INDEX 00 03:51:63FILE "11 Arabix - Uchida Naoyuki Remix (feat. Goma Da Digeridoo).wav" WAVE INDEX 01 00:00:00 TRACK 12 AUDIO TITLE "Fams - Jackdrag Remix" PERFORMER "Twilight Circus Dub Sound System" INDEX 00 04:10:30FILE "12 Fams - Jackdrag Remix.wav" WAVE INDEX 01 00:00:00
DJ Spooky That Subliminal Kid vs. Twilight Circus Dub Sound System – Riddim Clash

Лейбл: Play Label
Номер по каталогу: PLAY 007 CD
Формат: CD, Album
Страна: UK
Год выхода: 2004
Жанр: Electronic
Стиль: Leftfield, Dub
Аудиокодек: FLAC
Тип рипа: tracks+.cue
Битрейт аудио: lossless
Продолжительность: 43:34
Источник: cleepa, What.CD

Треклист:

01. Intro [2:20]
02. Dub Smasher [2:28]
03. Other Planes Of Dub [5:14]
04. Dust Storm On NGC 7023 [7:48]
05. Riddim Clash - Heavyweight Style [5:11]
06. Phase Anansi [4:18]
07. Gamma Burst [3:58]
08. Interlude [1:56]
09. Dub Cultivator [4:19]
10. Interlude 2 [1:51]
11. Intergalactic Dub [4:12]
 
Exact Audio Copy V1.0 beta 1 from 15. November 2010

EAC extraction logfile from 28. December 2010, 14:36

DJ Spooky That Subliminal Kid vs. Twilight Circus Dub Sound System / Riddim Clash

Used drive : HL-DT-STDVD-RAM GH40L Adapter: 2 ID: 0

Read mode : SecureUtilize accurate stream : YesDefeat audio cache : YesMake use of C2 pointers : No

Read offset correction : 667Overread into Lead-In and Lead-Out : NoFill up missing offset samples with silence : YesDelete leading and trailing silent blocks : NoNull samples used in CRC calculations : YesUsed interface : Installed external ASPI interfaceGap handling : Appended to previous track

Used output format : User Defined EncoderSelected bitrate : 128 kBit/sQuality : HighAdd ID3 tag : NoCommand line compressor : C:\Program Files\Exact Audio Copy\Flac\flac.exeAdditional command line options : -V -8 -T "artist=%a" -T "title=%t" -T "album=%g" -T "date=%y" -T "tracknumber=%n" -T "genre=%m" %s

TOC of the extracted CD

Track | Start | Length | Start sector | End sector --------------------------------------------------------- 1 | 0:00.00 | 2:20.14 | 0 | 10513 2 | 2:20.14 | 2:27.62 | 10514 | 21600 3 | 4:48.01 | 5:13.50 | 21601 | 45125 4 | 10:01.51 | 7:47.67 | 45126 | 80217 5 | 17:49.43 | 5:10.61 | 80218 | 103528 6 | 23:00.29 | 4:17.74 | 103529 | 122877 7 | 27:18.28 | 3:57.49 | 122878 | 140701 8 | 31:16.02 | 1:56.05 | 140702 | 149406 9 | 33:12.07 | 4:18.68 | 149407 | 168824 10 | 37:31.00 | 1:50.68 | 168825 | 177142 11 | 39:21.68 | 4:12.14 | 177143 | 196056

Track 1

Filename H:\audio\temprip\01 - DJ Spooky That Subliminal Kid vs. Twilight Circus Dub Sound System - Intro.wav

Pre-gap length 0:00:02.00

Peak level 98.6 % Extraction speed 1.6 X Track quality 100.0 % Test CRC AA7F7868 Copy CRC AA7F7868 Track not present in AccurateRip database Copy OK

Track 2

Filename H:\audio\temprip\02 - DJ Spooky That Subliminal Kid vs. Twilight Circus Dub Sound System - Dub Smasher.wav

Peak level 99.6 % Extraction speed 1.8 X Track quality 100.0 % Test CRC F8B84AE9 Copy CRC F8B84AE9 Track not present in AccurateRip database Copy OK

Track 3

Filename H:\audio\temprip\03 - DJ Spooky That Subliminal Kid vs. Twilight Circus Dub Sound System - Other Planes Of Dub.wav

Peak level 99.6 % Extraction speed 2.2 X Track quality 100.0 % Test CRC B93FDB2A Copy CRC B93FDB2A Track not present in AccurateRip database Copy OK

Track 4

Filename H:\audio\temprip\04 - DJ Spooky That Subliminal Kid vs. Twilight Circus Dub Sound System - Dust Storm On NGC 7023.wav

Peak level 99.6 % Extraction speed 2.6 X Track quality 100.0 % Test CRC 5927C947 Copy CRC 5927C947 Track not present in AccurateRip database Copy OK

Track 5

Filename H:\audio\temprip\05 - DJ Spooky That Subliminal Kid vs. Twilight Circus Dub Sound System - Riddim Clash - Heavyweight Style.wav

Peak level 99.6 % Extraction speed 2.5 X Track quality 99.9 % Test CRC 28E5AE71 Copy CRC 28E5AE71 Track not present in AccurateRip database Copy OK

Track 6

Filename H:\audio\temprip\06 - DJ Spooky That Subliminal Kid vs. Twilight Circus Dub Sound System - Phase Anansi.wav

Peak level 99.6 % Extraction speed 2.9 X Track quality 100.0 % Test CRC 37BC64C3 Copy CRC 37BC64C3 Track not present in AccurateRip database Copy OK

Track 7

Filename H:\audio\temprip\07 - DJ Spooky That Subliminal Kid vs. Twilight Circus Dub Sound System - Gamma Burst.wav

Peak level 99.6 % Extraction speed 3.0 X Track quality 100.0 % Test CRC 98B35444 Copy CRC 98B35444 Track not present in AccurateRip database Copy OK

Track 8

Filename H:\audio\temprip\08 - DJ Spooky That Subliminal Kid vs. Twilight Circus Dub Sound System - Interlude.wav

Peak level 93.6 % Extraction speed 2.6 X Track quality 100.0 % Test CRC BBE8A9E9 Copy CRC BBE8A9E9 Track not present in AccurateRip database Copy OK

Track 9

Filename H:\audio\temprip\09 - DJ Spooky That Subliminal Kid vs. Twilight Circus Dub Sound System - Dub Cultivator.wav

Peak level 99.6 % Extraction speed 3.2 X Track quality 100.0 % Test CRC 96EC5B3B Copy CRC 96EC5B3B Track not present in AccurateRip database Copy OK

Track 10

Filename H:\audio\temprip\10 - DJ Spooky That Subliminal Kid vs. Twilight Circus Dub Sound System - Interlude 2.wav

Peak level 93.7 % Extraction speed 2.2 X Track quality 99.9 % Test CRC 1198AD23 Copy CRC 1198AD23 Track not present in AccurateRip database Copy OK

Track 11

Filename H:\audio\temprip\11 - DJ Spooky That Subliminal Kid vs. Twilight Circus Dub Sound System - Intergalactic Dub.wav

Peak level 99.6 % Extraction speed 3.5 X Track quality 100.0 % Test CRC 986C9CEC Copy CRC 986C9CEC Track not present in AccurateRip database Copy OK

None of the tracks are present in the AccurateRip database

No errors occurred

End of status report

==== Log checksum DDBC24DAAC172DD36B31D60541577F6EB9487F6C73D5060CEB35B8A532C2E910 ====
[pre]REM GENRE Hip-hop
REM DATE 2004
REM DISCID 880A360B
REM COMMENT "ExactAudioCopy v1.0b1"
PERFORMER "DJ Spooky That Subliminal Kid vs. Twilight Circus Dub Sound System"
TITLE "Riddim Clash"
FILE "01 - DJ Spooky That Subliminal Kid vs. Twilight Circus Dub Sound System - Intro.wav" WAVE
TRACK 01 AUDIO
TITLE "Intro"
PERFORMER "DJ Spooky That Subliminal Kid vs. Twilight Circus Dub Sound System"
FLAGS DCP
INDEX 01 00:00:00
FILE "02 - DJ Spooky That Subliminal Kid vs. Twilight Circus Dub Sound System -


Трекер:  [ 09-Ноя-2011 11:23 ]

  

Скачать .torrent

Размер .torrent файла 47 KB


Размер: 3.76 GB
Хэш (hash) релиза: f0d9c789859333282302851502a9fcf0bde74e72

bot

Топик был перенесен в форум Зарубежный Reggae, Ska, Dub (lossless)

Перенес Ronaldo C

Хотите добавить комментарий к записи скачать торрент Twilight Circus Dub Sound System - Коллекция

!Обратная связь