Portia Double... | 3 K Тихое место 2018 | Click to share on Facebook (Opens in new window)

Скачать через торрент Московская пленница Серии: 1-2 из 2 Фильм бесплатно в хорошем качестве torrent

Скачивайте на UnionPeer.org фильмы через торрент без регистрации. Новинки кино в хорошем качестве через торрент. На UnionPeer.org можно скачать через торрент фильмы 2014 и 2015 годов. Самые новые фильмы.

Скачать торрент Московская пленница Серии: 1-2 из 2 бесплатно через .torrent фильм мультфильм сериал

Статистика раздачи
Размер:  3.39 GB   |    Зарегистрирован:  4 месяца 8 дней   |    .torrent скачан:  57 раз   |   
Раздают:  1  
   
загрузка...
 
Автор Сообщение

Galfimbul

avatar Galfimbul


Московская пленница

Год выпуска: 2017
Производство: Марс Медиа Энтертейнмент
Жанр: мелодрама
Продолжительность: ~00:46:00 серия
Субтитры: нет

Режиссёр: Наталья Хлопецкая

В ролях: Екатерина Соломатина, Евгения Розанова, Николай Быстров, Антон Батырев, Ирина Баринова, Сергей Галахов, Ирина Гришина, Алексей Колубков, Зураб Миминошвили

Описание: Лена и Сережа Саврасовы на пороге новой жизни — через несколько часов они получат ключи от квартиры в новом доме. В эту квартиру вложены все их сбережения. Чтобы выплатить финальный взнос по ипотеке, молодые два года отказывали себе во всем, ютились в комнате в коммуналке, питались лапшой из пачек. И вот, когда до мечты остается один шаг, жизнь бросает Саврасовым такой вызов, который они вряд ли смогут принять…

Реклама: Нет.

Кинопоиск
Все раздачи сериала
Sample

Качество: WEBRip 1080p - Getty
Формат: MKV
Видео кодек: H.264
Аудио кодек: AC3
Видео: MPEG4 AVC Video, H264, 16:9, 1920x1080, 25 fps, ~5000 kbps, 0.097 bit/pixel
Аудио: AC3 Dolby Digital, 48.0 kHz, 2/0 (L,R) ch, 192 kbps
General
Unique ID : 215861156739479626336161117816713164125 (0xA26558B81EF7E01F853D83B605ACB55D)
Complete name : D:\Moskovskaja.plennica.2017.WEB-DL.(1080p).Getty\Moskovskaja.plennica.e01.2017.WEB-DL.(1080p).Getty.mkv
Format : Matroska
Format version : Version 4 / Version 2
File size : 1.72 GiB
Duration : 46mn 20s
Overall bit rate : 5 313 Kbps
Movie name : Moskovskaja.plennica.e01.2017.WEB-DL.(1080p).Getty
Encoded date : UTC 2018-03-08 23:42:51
Writing application : mkvmerge v7.8.0 ('River Man') 32bit built on Mar 27 2015 16:18:02
Writing library : libebml v1.3.1 + libmatroska v1.4.2
DURATION : 00:46:20.416000000
NUMBER_OF_FRAMES : 86888
NUMBER_OF_BYTES : 66729984
_STATISTICS_WRITING_APP : mkvmerge v7.8.0 ('River Man') 32bit built on Mar 27 2015 16:18:02
_STATISTICS_WRITING_DATE_UTC : 2018-03-08 23:42:51
_STATISTICS_TAGS : BPS DURATION NUMBER_OF_FRAMES NUMBER_OF_BYTES

Video
ID : 1
Format : AVC
Format/Info : Advanced Video Codec
Format profile : [email protected]
Format settings, CABAC : Yes
Format settings, ReFrames : 4 frames
Codec ID : V_MPEG4/ISO/AVC
Duration : 46mn 20s
Bit rate : 5 015 Kbps
Width : 1 920 pixels
Height : 1 080 pixels
Display aspect ratio : 16:9
Frame rate mode : Constant
Frame rate : 25.000 fps
Color space : YUV
Chroma subsampling : 4:2:0
Bit depth : 8 bits
Scan type : Progressive
Bits/(Pixel*Frame) : 0.097
Stream size : 1.62 GiB (94%)
Default : Yes
Forced : No

Audio
ID : 2
Format : AC-3
Format/Info : Audio Coding 3
Mode extension : CM (complete main)
Format settings, Endianness : Big
Codec ID : A_AC3
Duration : 46mn 20s
Bit rate mode : Constant
Bit rate : 192 Kbps
Channel count : 2 channels
Channel positions : Front: L R
Sampling rate : 48.0 KHz
Bit depth : 16 bits
Compression mode : Lossy
Stream size : 63.6 MiB (4%)
Default : Yes
Forced : No


Трекер:  [ 09-Мар-2018 12:48 ]

  

Скачать .torrent

Размер .torrent файла 17 KB


Размер: 3.39 GB
Хэш (hash) релиза: af120e4987ca47ae71d53b5e24882c8f800413b6
Подписка на обновления:

Торренты, похожие на Московская пленница Серии: 1-2 из 2 скачать торрент

Форум Название Автор Размер S L Добавлен
Российские сериалы ·· Московская пленница / Серии: 1-2 из 2 (Наталья Хлопецкая) [2017, мелодрама, WEBRip] Galfimbul 12584407041.17 GB 0 0 1520589128

12:52

9-Мар-18

Еще никто не оставлял запись к записи скачать торрент Московская пленница Серии: 1-2 из 2 . Будь первым!

!Обратная связь