Michael Wai-Man Chan | Download | Cuisine du sud facile

Скачать через торрент Московская пленница Серии: 1-2 из 2 Фильм бесплатно в хорошем качестве torrent

Скачивайте на UnionPeer.org фильмы через торрент без регистрации. Новинки кино в хорошем качестве через торрент. На UnionPeer.org можно скачать через торрент фильмы 2014 и 2015 годов. Самые новые фильмы.

Скачать торрент Московская пленница Серии: 1-2 из 2 бесплатно через .torrent фильм мультфильм сериал

Статистика раздачи
Размер:  1.17 GB   |    Зарегистрирован:  4 месяца 6 дней   |    .torrent скачан:  61 раз   |   
Раздают:  1  
   
загрузка...
 
Автор Сообщение

Galfimbul

avatar Galfimbul


Московская пленница

Год выпуска: 2017
Производство: Марс Медиа Энтертейнмент
Жанр: мелодрама
Продолжительность: ~00:46:00 серия
Субтитры: нет

Режиссёр: Наталья Хлопецкая

В ролях: Екатерина Соломатина, Евгения Розанова, Николай Быстров, Антон Батырев, Ирина Баринова, Сергей Галахов, Ирина Гришина, Алексей Колубков, Зураб Миминошвили

Описание: Лена и Сережа Саврасовы на пороге новой жизни — через несколько часов они получат ключи от квартиры в новом доме. В эту квартиру вложены все их сбережения. Чтобы выплатить финальный взнос по ипотеке, молодые два года отказывали себе во всем, ютились в комнате в коммуналке, питались лапшой из пачек. И вот, когда до мечты остается один шаг, жизнь бросает Саврасовым такой вызов, который они вряд ли смогут принять…

Реклама: Нет.

Кинопоиск
Все раздачи сериала
Sample

Качество: WEBRip - Files-x
Формат: AVI
Видео кодек: XviD
Аудио кодек: AC3
Видео: 720x400 (1.80:1), 25 fps, XviD build 73 ~1600 kbps avg, 0.223 bit/pixel
Аудио: 48.0 kHz, AC3 Dolby Digital, 2/0 (L,R) ch, ~ 192 kbps
General
Complete name : D:\Moskovskaja.plennica.2017.WEB-DLRip.Files-x\01.Moskovskaja.plennica.2017.WEB-DLRip.Files-x.avi
Format : AVI
Format/Info : Audio Video Interleave
File size : 600 MiB
Duration : 46mn 20s
Overall bit rate : 1 811 Kbps
Writing application : VirtualDubMod 1.5.10.3 | www.virtualdub-fr.org || (build 2550/release)
Writing library : VirtualDubMod build 2550/release

Video
ID : 0
Format : MPEG-4 Visual
Format profile : Advanced [email protected]
Format settings, BVOP : 1
Format settings, QPel : No
Format settings, GMC : No warppoints
Format settings, Matrix : Custom
Codec ID : XVID
Codec ID/Hint : XviD
Duration : 46mn 20s
Bit rate : 1 609 Kbps
Width : 720 pixels
Height : 400 pixels
Display aspect ratio : 16:9
Frame rate : 25.000 fps
Color space : YUV
Chroma subsampling : 4:2:0
Bit depth : 8 bits
Scan type : Progressive
Compression mode : Lossy
Bits/(Pixel*Frame) : 0.223
Stream size : 533 MiB (89%)
Writing library : XviD 73

Audio
ID : 1
Format : AC-3
Format/Info : Audio Coding 3
Mode extension : CM (complete main)
Format settings, Endianness : Big
Codec ID : 2000
Duration : 46mn 20s
Bit rate mode : Constant
Bit rate : 192 Kbps
Channel count : 2 channels
Channel positions : Front: L R
Sampling rate : 48.0 KHz
Bit depth : 16 bits
Compression mode : Lossy
Stream size : 63.6 MiB (11%)
Alignment : Split accross interleaves
Interleave, duration : 40 ms (1.00 video frame)
Interleave, preload duration : 500 ms


Трекер:  [ 09-Мар-2018 12:48 ]

  

Скачать .torrent

Размер .torrent файла 12 KB


Размер: 1.17 GB
Хэш (hash) релиза: fb84eae95010d1a9345e315bab4031ddf03d76db
Подписка на обновления:

Торренты, похожие на Московская пленница Серии: 1-2 из 2 скачать торрент

Форум Название Автор Размер S L Добавлен
Российские сериалы ·· Московская пленница / Серии: 1-2 из 2 (Наталья Хлопецкая) [2017, мелодрама, WEBRip 1080p] Galfimbul 36425759243.39 GB 0 0 1520589137

12:52

9-Мар-18

Еще никто не оставлял запись к записи скачать торрент Московская пленница Серии: 1-2 из 2 . Будь первым!

!Обратная связь