Deportes
第161回 (8P)

Скачать через торрент Кибер-город Эдо 808 Cyber City Oedo 808 бесплатно Аниме Все серии на русском torrent

Статистика раздачи
Размер:  2.65 GB   |    Зарегистрирован:  1 месяц 10 дней   |    .torrent скачан:  39 раз   |   
Раздают:  1  
   
загрузка...
 
Автор Сообщение

Galfimbul

avatar Galfimbul


Кибер-город Эдо 808 / Cyber City Oedo 808
Страна: Япония
Год выпуска: 1990-1991
Жанр: приключения, фантастика, меха
Тип: OVA
Продолжительность: 3 эп по ~42 мин
Режиссёр: Кавадзири Ёсиаки
Автор оригинала: Муцуки Дзюдзо
Студия: Madhouse Studios
Озвучка:
Двухголосная MC Entertainment
Субтитры: есть
русские (внешние) SRT полные
от MC Entertainment
Описание: 2808 г. нашей эры. Три рецидивиста получают заманчивое предложение: променять сотни лет тюремного заключения на службу в кибер-полиции. За каждого обезвреженного злодея прожженным киллерам, ворам и хакерам скостят срок на несколько лет, а там и до свободы рукой подать. Безумная охота в джунглях кибернетического мегаполиса – отличное развлечение для тех, кому нечего терять! Но есть одна проблема – в случае неудачи и при малейшем непослушании начальник полиции нажмет кнопку, и на агенте взорвется ошейник, который невозможно снять. Кибер город Эдо задыхается в тисках преступности, и коварный садист-полицейский вовсю наслаждается своей властью, ставя перед тремя спецагентами всё более сложные задачи…
Информационные ссылки: AniDB | ANN | World Art
Качество: DVDRip (R5DVD Remastered)
Релиз/Автор рипа: mottoj
Совместимость с бытовыми плеерами: Нет
Наличие линковки: Нет
Тип видео: без хардсаба
Формат: MKV
Видео: x264, 768x576, (4/3), ~2300кбит/с, 23.976fps, 10 bit
Аудио #1 (внешняя) русская - AC3, 2 ch, 192кбит/с, 48000Hz
Аудио #2 (в контейнере) японская - AC3, 2 ch, 448кбит/с, 48000Hz
* Чтобы смотреть с озвучкой, необходимо из папки Rus sound переписать файлы в папку, где находятся видеофайлы. Далее, следует запустить плеер и переключиться на mka-дорожку. Подробное описание здесь
* Чтобы смотреть 10-битное видео (10bit), необходимо, исходя из ваших предпочтений используемого проигрывателя, воспользоваться
этой инструкцией.
* Чтобы смотреть с субтитрами, необходимо из папки Rus subs переписать файлы в папку, где находятся видеофайлы. В большинстве плееров, одноимённые субтитры подключатся автоматически.

01. Memories of the Past
02. The Decoy Program
03. Crimson Media

...129830 - наличие озвучки


Общее
Уникальный идентификатор : 211699890635911511999650070598909537021 (0x9F43EA75CBB640809F6480617689AAFD)
Полное имя : C:\Торенты №1\Cyber City Oedo 808 [DVDRip 576p]\[mottoj] Cyber City Oedo 808 - 01 (DVDRip 768x576 x264 Hi10p AC3 Chap).mkv
Формат : Matroska
Версия формата : Version 2
Размер файла : 866 Мбайт
Продолжительность : 41 м.
Общий поток : 2887 Кбит/сек
Дата кодирования : UTC 2018-03-09 06:59:42
Программа кодирования : mkvmerge v2.9.7 ('Tenderness') built on Jul 1 2009 18:43:35
Библиотека кодирования : libebml v0.7.7 + libmatroska v0.8.1

Видео
Идентификатор : 1
Формат : AVC
Формат/Информация : Advanced Video Codec
Профиль формата : High [email protected]
Параметр CABAC формата : Да
Параметр ReFrames формата : 5 кадров
Идентификатор кодека : V_MPEG4/ISO/AVC
Продолжительность : 41 м.
Битрейт : 2381 Кбит/сек
Ширина : 768 пикселей
Высота : 576 пикселей
Соотношение сторон : 4:3
Режим частоты кадров : Постоянный
Частота кадров : 23,976 (24000/1001) кадра/сек
Цветовое пространство : YUV
Субдискретизация насыщенности : 4:2:0
Битовая глубина : 10 бит
Тип развёртки : Прогрессивная
Бит/(Пиксели*Кадры) : 0.225
Размер потока : 715 Мбайт (82%)
Библиотека кодирования : x264 core 155 r2901 7d0ff22
Настройки программы : cabac=1 / ref=5 / deblock=1:-1:-1 / analyse=0x3:0x133 / me=esa / subme=11 / psy=1 / psy_rd=0.90:0.00 / mixed_ref=1 / me_range=32 / chroma_me=1 / trellis=2 / 8x8dct=1 / cqm=0 / deadzone=21,11 / fast_pskip=0 / chroma_qp_offset=-2 / threads=12 / lookahead_threads=1 / sliced_threads=0 / nr=0 / decimate=1 / interlaced=0 / bluray_compat=0 / constrained_intra=0 / bframes=4 / b_pyramid=2 / b_adapt=2 / b_bias=1 / direct=3 / weightb=1 / open_gop=0 / weightp=2 / keyint=240 / keyint_min=23 / scenecut=40 / intra_refresh=0 / rc_lookahead=50 / rc=crf / mbtree=1 / crf=15.5 / qcomp=0.70 / qpmin=8 / qpmax=40 / qpstep=4 / vbv_maxrate=62500 / vbv_bufsize=78125 / crf_max=0.0 / nal_hrd=none / filler=0 / ip_ratio=1.40 / aq=1:1.10
Язык : Japanese
Default : Да
Forced : Нет
Цветовой диапазон : Limited
Основные цвета : BT.601 NTSC
Характеристики трансфера : BT.601
Коэффициенты матрицы : BT.601

Аудио
Идентификатор : 2
Формат : AC-3
Формат/Информация : Audio Coding 3
Расширение режима : CM (complete main)
Параметр Endianness формата : Big
Идентификатор кодека : A_AC3
Продолжительность : 41 м.
Вид битрейта : Постоянный
Битрейт : 448 Кбит/сек
Каналы : 2 канала
Расположение каналов : Front: L R
Частота : 48,0 КГц
Частота кадров : 31,250 кадров/сек (1536 spf)
Метод сжатия : С потерями
Размер потока : 134 Мбайт (16%)
Язык : Japanese
Default : Да
Forced : Нет

Меню
00:00:00.000 : :Chapter 1
00:02:02.998 : :Chapter 1.1
00:03:55.360 : :Chapter 1.2
00:07:24.744 : :Chapter 2
00:16:08.334 : :Chapter 3
00:23:02.147 : :Chapter 4
00:32:09.495 : :Chapter 5
00:39:22.729 : :Chapter 6



Трекер:  [ 09-Мар-2018 10:30 ]

  

Скачать .torrent

Размер .torrent файла 14 KB


Размер: 2.65 GB
Хэш (hash) релиза: 3bf2477469a1b4b2798616a517f097b90ff55264
Подписка на обновления:

Еще никто не оставлял запись к записи скачать торрент Кибер-город Эдо 808 Cyber City Oedo 808 . Будь первым!

!Обратная связь