Ufak Tefek Cinayetler
Ride Along (2014) 720p BrRip x264 - YIFY

Скачать через торрент Царство Зелёной Поляны Krolestwo Zielonei Polany Фильм бесплатно в хорошем качестве torrent

Скачивайте на UnionPeer.org фильмы через торрент без регистрации. Новинки кино в хорошем качестве через торрент. На UnionPeer.org можно скачать через торрент фильмы 2014 и 2015 годов. Самые новые фильмы.

Скачать торрент Царство Зелёной Поляны Krolestwo Zielonei Polany бесплатно через .torrent фильм мультфильм сериал

Статистика раздачи
Размер:  752 MB   |    Зарегистрирован:  1 месяц 11 дней   |    .torrent скачан:  26 раз   |   
Раздают:  1  
   
загрузка...
 
Автор Сообщение

Galfimbul

avatar Galfimbul


Царство Зелёной Поляны / Królestwo Zielonei Polany

Страна: Польша
Жанр: мультфильм
Продолжительность: 01:05:04
Год выпуска: 1994
Перевод: Профессиональный (дублированный)
Русские субтитры: нет

Режиссёр: Кшиштоф Киверский / Krzystof Kiwerski

Описание: Невоспитанный мальчик Марек, придя в лес, порушил муравейник, порезал дерево и чуть не убил паука-крестовика. За эти проделки местный волшебник уменьшил его самого до размеров насекомого. В королевстве Зелёной Поляны Марека ждёт много приключений: он работает в муравейнике, спасает тонущего Майского Жука, помогает Божьей Коровке... И всё это время Мареку строит козни разозлённый Паук-Крестовик на пару со своим глуповатым племянником.

Семпл: http://radikal.ru/video/mQ1f0kj54ij

Качество: WEBRip
Формат: AVI
Видео: 1477 kbps, 624х480 (4:3), 25.000 fps, MPEG-4 Visual (XviD)
Аудио: 128 kbps, 44.1 kHz, 2 channels, MPEG Audio (MP3)
Субтитры: отсутствуют
GeneralComplete name : Krolestwo zielonei polany (1994).aviFormat : AVIFormat/Info : Audio Video InterleaveFile size : 752 MiBDuration : 1h 5mnOverall bit rate : 1 615 KbpsWriting application : VirtualDubMod 1.5.10.2 (build 2540/release)Writing library : VirtualDubMod build 2540/release

VideoID : 0Format : MPEG-4 VisualFormat profile : Advanced [email protected] settings, BVOP : 2Format settings, QPel : NoFormat settings, GMC : No warppointsFormat settings, Matrix : Default (H.263)Codec ID : XVIDCodec ID/Hint : XviDDuration : 1h 5mnBit rate : 1 477 KbpsWidth : 624 pixelsHeight : 480 pixelsDisplay aspect ratio : 4:3Frame rate : 25.000 fpsColor space : YUVChroma subsampling : 4:2:0Bit depth : 8 bitsScan type : ProgressiveCompression mode : LossyBits/(Pixel*Frame) : 0.197Stream size : 688 MiB (91%)Writing library : XviD 73

AudioID : 1Format : MPEG AudioFormat version : Version 1Format profile : Layer 3Codec ID : 55Codec ID/Hint : MP3Duration : 1h 5mnBit rate mode : ConstantBit rate : 128 KbpsChannel(s) : 2 channelsSampling rate : 44.1 KHzCompression mode : LossyStream size : 59.6 MiB (8%)Alignment : Split accross interleavesInterleave, duration : 40 ms (1.00 video frame)Interleave, preload duration : 500 ms


Трекер:  [ 09-Мар-2018 05:36 ]

  

Скачать .torrent

Размер .torrent файла 15 KB


Размер: 752 MB
Хэш (hash) релиза: 21ce8aa175c859bf2f0834b9aaf3bff9aba4d38e
Подписка на обновления:

Еще никто не оставлял запись к записи скачать торрент Царство Зелёной Поляны Krolestwo Zielonei Polany . Будь первым!

!Обратная связь