contact us | Uncontrollably Fond (Cantonese) - 任意依戀Uncontrollably Fond (Cantonese) | Acrimony 2018 - view now -

Скачать через торрент Гусятница у колодца Фильм бесплатно в хорошем качестве torrent

Скачивайте на UnionPeer.org фильмы через торрент без регистрации. Новинки кино в хорошем качестве через торрент. На UnionPeer.org можно скачать через торрент фильмы 2014 и 2015 годов. Самые новые фильмы.

Скачать торрент Гусятница у колодца бесплатно через .torrent фильм мультфильм сериал

Статистика раздачи
Размер:  225 MB   |    Зарегистрирован:  3 месяца 9 дней   |    .torrent скачан:  24 раза   |   
Раздают:  1  
   
загрузка...
 
Автор Сообщение

Galfimbul

avatar Galfimbul


Гусятница у колодца

Страна: Беларусь
Жанр: мультфильм, сказка
Продолжительность: 00:13:19
Год выпуска: 2013

Режиссёр: Ирина Тарасова

Описание: По мотивам сказки братьев Гримм.
Молодой граф взялся донести старушке до дома тяжёлую поклажу, а в итоге оказался впутанным в странную историю с заколдованной принцессой...

Качество: WEBRip
Формат: AVI
Видео: 2190 kbps, 720х400 (16:9), 25.000 fps, MPEG-4 Visual (XviD)
Аудио: 160 kbps, 44.1 kHz, 2 channels, MPEG Audio (MP3)
Субтитры: отсутствуют
GeneralComplete name : Гусятница у колодца (2013).aviFormat : AVIFormat/Info : Audio Video InterleaveFile size : 225 MiBDuration : 13mn 19sOverall bit rate : 2 363 KbpsWriting application : Lavf55.19.104

VideoID : 0Format : MPEG-4 VisualFormat profile : [email protected] settings, BVOP : NoFormat settings, QPel : NoFormat settings, GMC : No warppointsFormat settings, Matrix : Default (H.263)Codec ID : XVIDCodec ID/Hint : XviDDuration : 13mn 19sBit rate : 2 190 KbpsWidth : 720 pixelsHeight : 400 pixelsDisplay aspect ratio : 16:9Frame rate : 25.000 fpsColor space : YUVChroma subsampling : 4:2:0Bit depth : 8 bitsScan type : ProgressiveCompression mode : LossyBits/(Pixel*Frame) : 0.304Stream size : 209 MiB (93%)Writing library : XviD 73

AudioID : 1Format : MPEG AudioFormat version : Version 1Format profile : Layer 3Mode : Joint stereoMode extension : MS StereoCodec ID : 55Codec ID/Hint : MP3Duration : 13mn 19sBit rate mode : ConstantBit rate : 160 KbpsChannel(s) : 2 channelsSampling rate : 44.1 KHzCompression mode : LossyStream size : 15.2 MiB (7%)Alignment : Aligned on interleavesInterleave, duration : 26 ms (0.65 video frame)Writing library : LAME3.99.5


Трекер:  [ 09-Мар-2018 05:36 ]

  

Скачать .torrent

Размер .torrent файла 18 KB


Размер: 225 MB
Хэш (hash) релиза: 7e2c0082ac9c06b0e64fe539c9de13c3163b438a
Подписка на обновления:

Еще никто не оставлял запись к записи скачать торрент Гусятница у колодца . Будь первым!

!Обратная связь