The Affair 3.Sezon izle | Suivant → | Fantasia

Скачать через торрент Кровь ангела Серии: 1-4 из 4 Фильм бесплатно в хорошем качестве torrent

Скачивайте на UnionPeer.org фильмы через торрент без регистрации. Новинки кино в хорошем качестве через торрент. На UnionPeer.org можно скачать через торрент фильмы 2014 и 2015 годов. Самые новые фильмы.

Скачать торрент Кровь ангела Серии: 1-4 из 4 бесплатно через .torrent фильм мультфильм сериал

Статистика раздачи
Размер:  2.34 GB   |    Зарегистрирован:  4 месяца 9 дней   |    .torrent скачан:  54 раза   |   
Раздают:  1  
   
загрузка...
 
Автор Сообщение

Galfimbul

avatar Galfimbul


Кровь ангела

Год выпуска: 2017
Производство: Кинокомпания "Упс"
Жанр: мелодрама
Продолжительность: ~00:47:00 серия
Субтитры: нет

Режиссёр: Роман Барабаш

В ролях: Олеся Фаттахова, Антон Батыров, Олег Мазуров, Сергей Сипливый, Алексей Нагрудный, Лиза Курбанмагомедова

Описание: Похоронив маму, Вера устраивается работать горничной в роскошный особняк. Дом этот очень странный. Ей строго запрещено подниматься на второй этаж. Кроме дворецкого Терентьева, который в доме за главного, там живут повар Джованни и конюх Платон. Хозяев же Вера ни разу не видела. Выведать что-нибудь у прислуги Веры не удается. Только по странному шуму со второго этажа Вера может догадаться, что, видимо, там и живут загадочные, никогда не показывающиеся на глаза хозяева...

Реклама: Нет.

Sample

Качество: WEBRip - Files-x
Формат: AVI
Видео кодек: XviD
Аудио кодек: AC3
Видео: 720x400 (1.80:1), 25 fps, XviD build 73 ~1560 kbps avg, 0.218 bit/pixel
Аудио: 48.0 kHz, AC3 Dolby Digital, 2/0 (L,R) ch, ~ 192 kbps
General
Complete name : D:\Krov.angela.2018.WEBRip.Files-x\01.Krov.angela.2018.WEBRip.Files-x.avi
Format : AVI
Format/Info : Audio Video Interleave
File size : 600 MiB
Duration : 47mn 26s
Overall bit rate : 1 769 Kbps
Writing application : VirtualDubMod 1.5.10.3 | www.virtualdub-fr.org || (build 2550/release)
Writing library : VirtualDubMod build 2550/release

Video
ID : 0
Format : MPEG-4 Visual
Format profile : Advanced [email protected]
Format settings, BVOP : 1
Format settings, QPel : No
Format settings, GMC : No warppoints
Format settings, Matrix : Custom
Codec ID : XVID
Codec ID/Hint : XviD
Duration : 47mn 26s
Bit rate : 1 567 Kbps
Width : 720 pixels
Height : 400 pixels
Display aspect ratio : 16:9
Frame rate : 25.000 fps
Color space : YUV
Chroma subsampling : 4:2:0
Bit depth : 8 bits
Scan type : Progressive
Compression mode : Lossy
Bits/(Pixel*Frame) : 0.218
Stream size : 532 MiB (89%)
Writing library : XviD 73

Audio
ID : 1
Format : AC-3
Format/Info : Audio Coding 3
Mode extension : CM (complete main)
Format settings, Endianness : Big
Codec ID : 2000
Duration : 47mn 26s
Bit rate mode : Constant
Bit rate : 192 Kbps
Channel count : 2 channels
Channel positions : Front: L R
Sampling rate : 48.0 KHz
Bit depth : 16 bits
Compression mode : Lossy
Stream size : 65.1 MiB (11%)
Alignment : Split accross interleaves
Interleave, duration : 40 ms (1.00 video frame)
Interleave, preload duration : 500 ms


Трекер:  [ 09-Мар-2018 00:48 ]

  

Скачать .torrent

Размер .torrent файла 12 KB


Размер: 2.34 GB
Хэш (hash) релиза: b1d59446d28e025836cc79a8c59eb2d3610112d2
Подписка на обновления:

Торренты, похожие на Кровь ангела Серии: 1-4 из 4 скачать торрент

Форум Название Автор Размер S L Добавлен
Российские сериалы ·· Кровь ангела / Серии: 1-4 из 4 (Роман Барабаш) [2017, мелодрама, WEBRip-AVC] Galfimbul 25243849552.35 GB 0 0 1520551299

02:21

9-Мар-18

Еще никто не оставлял запись к записи скачать торрент Кровь ангела Серии: 1-4 из 4 . Будь первым!

!Обратная связь