Resident Evil 0 HD Remaster *2016* [MULTI-ENG] [EXE] | Incoming (2018) | Madge Levinson

Скачать через торрент Загадочная история «Коноханы» Konohana Kitan бесплатно Аниме Все серии на русском torrent

Статистика раздачи
Размер:  28.8 GB   |    Зарегистрирован:  3 месяца 11 дней   |    .torrent скачан:  21 раз   |   
Раздают:  1  
   
загрузка...
 
Автор Сообщение

Galfimbul

avatar Galfimbul


Загадочная история «Коноханы» / Konohana Kitan

Год выпуска: 2017
Страна: Япония
Жанр: фэнтези, повседневность, сёдзё-ай
Тип: TV
Продолжительность: 12 эп. по 24 мин.
Озвучка:

Одноголосая (жен) от Ruri (Aniplay)
Трёхголосая от Anzen & Cleo-chan & Silv (Anilibria)

Русские субтитры: есть (отдельным файлом, формат .ass)
Перевод:

Aexks, Luaine, Kagamin [SoraSubs]

Хардсаб: Нет
Режиссер: Окамото Хидэки
Студия: Lerche

Описание: Каких только удобств нет у людей! И рестораны, и клубы, и библиотеки, и гостиницы… А вы думали, что ёкаям этого не нужно? Они так же, как и мы, желают жить на полную катушку и с комфортом! Гостиница "Конохана” полностью соответствует притязательным желаниям ёкаев. Она оформлена в традиционном японском стиле, расположена на горячих источниках, а работают в ней девушки-лисички. Что ещё можно пожелать для счастья?

Лисичка по имени Юзу в детстве была выброшена в снег, но её подобрала и воспитала добрая буддистская монахиня. Юзу не слишком умеет общаться, немного неклюжа, но она искренне хочет узнать побольше об обществе, поэтому устраивается работать в "Конохану”. Вскоре дружелюбная и жизнерадостная Юзу становится незаменимой частью команды гувернанток гостиницы. Каждый день там останавливаются самые разные ёкаи, с разными предпочтениями и характерами, а задача лисичек заключается в том, чтобы у клиента остались только хорошие впечатления об этом месте! Но что скрывается за их стараниями, сможем увидеть только мы.

Качество: Blu-Ray Remux
Формат: MKV
Видео кодек: AVC
Аудио кодек: FLAC
Видео: 1920x1080 (16:9) 23,976 fps ~25,9 Mbps 8bit
Аудио:
Jap FLAC, 48000Hz, ~654 Kbps, 2ch
RUS 1-2 (ext) AAC, 48000Hz, ~192 Kbps, 2ch

Чаптеры присутствуют.
01. Вечер в Конохане
02. Весеннее путешествие
03. В ожидании любви
04. Мост сновидений
05. Весенние дожди
06. Ужасная история Коноханы
07. Летний фестиваль
08. Мимолетная встреча
09. Исчезновение...
10. Возвращение сестры
11. Божий выходной
12. Новогоднее чудо
Общее
Уникальный идентификатор : 136903389421140343849151769960009807863 (0x66FEA23B4E2C8EF9A26E0BBBB8F9B7F7)
Полное имя : Z:\Anime Release - working\Konohana Kitan\[anti-raws]Konohana Kitan ep.01[BDRemux].mkv
Формат : Matroska
Версия формата : Version 4 / Version 2
Размер файла : 4,52 Гбайт
Продолжительность : 23 м. 52 с.
Режим общего битрейта : Переменный
Общий поток : 27,1 Мбит/сек
Дата кодирования : UTC 2018-03-01 18:39:26
Программа кодирования : mkvmerge v20.0.0 ('I Am The Sun') 64-bit
Библиотека кодирования : libebml v1.3.5 + libmatroska v1.4.8

Видео
Идентификатор : 2
Формат : AVC
Формат/Информация : Advanced Video Codec
Профиль формата : [email protected]
Настройки формата : CABAC / 4 Ref Frames
Параметр CABAC формата : Да
Параметр RefFrames формата : 4 кадра
Идентификатор кодека : V_MPEG4/ISO/AVC
Продолжительность : 23 м. 52 с.
Вид битрейта : Переменный
Битрейт : 26,5 Мбит/сек
Максимальный битрейт : 40,0 Мбит/сек
Ширина : 1920 пикселей
Высота : 1080 пикселей
Соотношение сторон : 16:9
Режим частоты кадров : Постоянный
Частота кадров : 23,976 (24000/1001) кадра/сек
Цветовое пространство : YUV
Субдискретизация насыщенности : 4:2:0
Битовая глубина : 8 бит
Тип развёртки : Прогрессивная
Бит/(Пиксели*Кадры) : 0.532
Размер потока : 4,41 Гбайт (98%)
Default : Нет
Forced : Нет

Аудио
Идентификатор : 1
Формат : FLAC
Формат/Информация : Free Lossless Audio Codec
Идентификатор кодека : A_FLAC
Продолжительность : 23 м. 52 с.
Вид битрейта : Переменный
Битрейт : 654 Кбит/сек
Каналы : 2 канала
Расположение каналов : Front: L R
Частота : 48,0 КГц
Частота кадров : 11,719 кадров/сек (4096 SPF)
Битовая глубина : 16 бит
Размер потока : 112 Мбайт (2%)
Библиотека кодирования : libFLAC 1.2.1 (UTC 2007-09-17)
Язык : Japanese
Default : Да
Forced : Нет

Меню
00:00:00.000 : en:00:00:00.000
00:01:18.996 : en:00:01:18.996
00:02:49.044 : en:00:02:49.044
00:14:49.055 : en:00:14:49.055
00:22:06.033 : en:00:22:06.033
00:23:36.040 : en:00:23:36.040
...5462025
...5486529
--HDTVRip

Эта раздача - BDRemux


Трекер:  [ 08-Мар-2018 23:01 ]

  

Скачать .torrent

Размер .torrent файла 39 KB


Размер: 28.8 GB
Хэш (hash) релиза: f157bc2a0ea688317cc6636f8afbb3539f5517f8
Подписка на обновления:

Еще никто не оставлял запись к записи скачать торрент Загадочная история «Коноханы» Konohana Kitan . Будь первым!

!Обратная связь