Nicky, Ricky, Dicky Dawn | Barbie & Her Sisters In The Great Puppy Adventure | Cape Town

Скачать через торрент Лунный флаг Atrapa la bandera Фильм бесплатно в хорошем качестве torrent

Скачивайте на UnionPeer.org фильмы через торрент без регистрации. Новинки кино в хорошем качестве через торрент. На UnionPeer.org можно скачать через торрент фильмы 2014 и 2015 годов. Самые новые фильмы.

Скачать торрент Лунный флаг Atrapa la bandera бесплатно через .torrent фильм мультфильм сериал

Статистика раздачи
Размер:  5.66 GB   |    Зарегистрирован:  3 месяца 11 дней   |    .torrent скачан:  23 раза   |   
Раздают:  1  
   
загрузка...
 
Автор Сообщение

Galfimbul

avatar Galfimbul


Лунный флаг / Atrapa la bandera

Страна: Испания
Студия: 4 Cats Pictures, Telefonica Studios
Жанр: мультфильм, фантастика, комедия, приключения, семейный
Год выпуска: 2015
Продолжительность: 01:30:43

Перевод: Профессиональный (дублированный)
Субтитры: английские, русские, румынские, украинские, английские (форс.), русские (форс.), румынские (форс.), украинские (форс.)
Оригинальная аудиодорожка: английская

Режиссёр: Энрике Гато / Enrique Gato

Роли озвучивали: Дэни Ровира, Мишель Хеннер, Карме Калвелл, Хавьер Балас, Камилло Гарсия, Тони Мора, Марта Барбара, Фернандо Гарсия Кабрера, Ксавьер Касан, Ориол Тарраго

Описание: 12-летний Майк вместе со своими друзьями пытается спасти Луну от захвата злобным миллиардером Карсоном. Но для этого надо всего лишь… полететь в космос. Удастся ли обыкновенным подросткам пробраться на космическую базу, прилуниться и победить коварного злодея? Для этого понадобится помощь друзей, верной домашней ящерицы и родного деда. Большое космическое приключение, объединившее всю семью, начинается!

Дополнительные материалы: Съемки фильма "Лунный флаг"

Меню: есть, статичное

Сэмпл

Тип релиза: DVD9
Контейнер: DVD-Video

Видео: PAL 16:9 (720x576(0.577)) MPEG Video, 25,000 кадр/сек, 5987 Кбит/сек
Аудио: English (Dolby AC-3, 6 ch) 448 Кбит/сек, 48.0 КГц
Аудио 2: Russian (Dolby AC-3, 6 ch) 448 Кбит/сек, 48.0 КГц
Аудио 3: Romanian (Dolby AC-3, 6 ch) 448 Кбит/сек, 48.0 КГц
Аудио 4: Ukrainian (Dolby AC-3, 6 ch) 448 Кбит/сек, 48.0 КГц
Title: CAPTURE_THE_FLAG
Disk size: 5.66 Gb ( 5 938 396,00 KBytes )
DVD Type: DVD-9
Enabled regions: 1,2,3,4,5,6,7,8

VTS_01:
Title Play Length: 00:00:00
Video: PAL 16:9 (720x576) VBR,Auto Pan&Scan
Audio (8):
Not specified (Dolby AC3, 2 ch)
Not specified (Dolby AC3, 2 ch)
Not specified (Dolby AC3, 2 ch)
Subtitles (12):
Not specified
Not specified
Not specified

VTS_02:
Title Play Length: 00:00:00
Video: PAL 16:9 (720x576) VBR,Auto Letterboxed
Audio (0)
Subtitles (0)

VTS_03:
Title Play Length: 00:15:02
Video: PAL 16:9 (720x576) VBR,Auto Letterboxed
Audio (1):
Espanol (Dolby AC3, 2 ch)
Subtitles (4):
English
Russian
Romanian
Ukrainian

VTS_04:
Title Play Length: 00:00:00
Video: PAL 16:9 (720x576) VBR,Auto Letterboxed
Audio (0)
Subtitles (0)

VTS_05:
Title Play Length: 00:09:28
Video: PAL 16:9 (720x576) VBR,Auto Letterboxed
Audio (4):
English (Dolby AC3, 6 ch)
Russian (Dolby AC3, 6 ch)
Romanian (Dolby AC3, 6 ch)
Ukrainian (Dolby AC3, 6 ch)
Subtitles (8):
English
Russian
Romanian
Ukrainian
English
Russian
Romanian
Ukrainian

* Menus Information *

VIDEO_TS Menu
Video:
PAL 16:9 (720x576) VBR
Auto Pan&Scan
Audio (0)
English Language Unit :
Title Menu

VTS_01 Menu
Video:
NTSC 4:3 (720x480) VBR
Auto Pan&Scan, Auto Letterboxed
Audio (0)
English Language Unit :
Root Menu

VTS_02 Menu
Video:
PAL 16:9 (720x576) VBR
Auto Pan&Scan
Audio (1):
Not specified (Dolby AC3, 2 ch)
English Language Unit :
Root Menu
Audio Menu
Angle menu

VTS_03 Menu
Video:
PAL 16:9 (720x576) VBR
Auto Pan&Scan
Audio (0)
English Language Unit :
Root Menu
Angle menu

VTS_04 Menu
Video:
PAL 16:9 (720x576) VBR
Auto Pan&Scan
Audio (0)
English Language Unit :
Root Menu

VTS_05 Menu
Video:
PAL 16:9 (720x576) VBR
Auto Pan&Scan
Audio (0)
English Language Unit :
Root Menu
Subpicture Menu
Audio Menu
Angle menu
Chapter (PTT) Menu
Общее
Полное имя : CAPTURE_THE_FLAG\VIDEO_TS\VTS_05_1.VOB
Формат : MPEG-PS
Размер файла : 1024 Мбайт
Продолжительность : 18 м. 2 с.
Режим общего битрейта : Переменный
Общий поток : 7937 Кбит/сек

Видео
Идентификатор : 224 (0xE0)
Формат : MPEG Video
Версия формата : Version 2
Профиль формата : [email protected]
Настройки формата : CustomMatrix / BVOP
Параметр BVOP формата : Да
Параметр матрицы формата : Выборочная
Параметр GOP формата : Variable
Продолжительность : 18 м. 2 с.
Вид битрейта : Переменный
Битрейт : 5987 Кбит/сек
Максимальный битрейт : 9800 Кбит/сек
Ширина : 720 пикселей
Высота : 576 пикселей
Соотношение сторон : 16:9
Частота кадров : 25,000 кадров/сек
Стандарт вещания : Component
Цветовое пространство : YUV
Субдискретизация насыщенности : 4:2:0
Битовая глубина : 8 бит
Тип развёртки : Прогрессивная
Порядок развёртки : Верхнее поле первое
Метод сжатия : С потерями
Бит/(Пиксели*Кадры) : 0.577
Временной код первого кадра : 00:59:59:00
Оригинал временного кода : Group of pictures header
GOP, открыто/закрыто : Открыто
GOP, открыто/закрыто на первом кадре : Закрыто
Размер потока : 772 Мбайт (75%)
Основные цвета : BT.601 PAL
Характеристики трансфера : BT.470 System B, BT.470 System G
Коэффициенты матрицы : BT.470 System B, BT.470 System G

Аудио #1
Идентификатор : 189 (0xBD)-128 (0x80)
Формат : AC-3
Формат/Информация : Audio Coding 3
Режим смешивания : DVD-Video
Продолжительность : 18 м. 2 с.
Вид битрейта : Постоянный
Битрейт : 448 Кбит/сек
Каналы : 6 каналов
Расположение каналов : Front: L C R, Side: L R, LFE
Частота : 48,0 КГц
Частота кадров : 31,250 кадров/сек (1536 SPF)
Битовая глубина : 16 бит
Метод сжатия : С потерями
Размер потока : 57,8 Мбайт (6%)
ServiceKind/String : Complete Main

Аудио #2
Идентификатор : 189 (0xBD)-129 (0x81)
Формат : AC-3
Формат/Информация : Audio Coding 3
Режим смешивания : DVD-Video
Продолжительность : 18 м. 2 с.
Вид битрейта : Постоянный
Битрейт : 448 Кбит/сек
Каналы : 6 каналов
Расположение каналов : Front: L C R, Side: L R, LFE
Частота : 48,0 КГц
Частота кадров : 31,250 кадров/сек (1536 SPF)
Битовая глубина : 16 бит
Метод сжатия : С потерями
Размер потока : 57,8 Мбайт (6%)
ServiceKind/String : Complete Main

Аудио #3
Идентификатор : 189 (0xBD)-130 (0x82)
Формат : AC-3
Формат/Информация : Audio Coding 3
Режим смешивания : DVD-Video
Продолжительность : 18 м. 2 с.
Вид битрейта : Постоянный
Битрейт : 448 Кбит/сек
Каналы : 6 каналов
Расположение каналов : Front: L C R, Side: L R, LFE
Частота : 48,0 КГц
Частота кадров : 31,250 кадров/сек (1536 SPF)
Битовая глубина : 16 бит
Метод сжатия : С потерями
Размер потока : 57,8 Мбайт (6%)
ServiceKind/String : Complete Main

Аудио #4
Идентификатор : 189 (0xBD)-131 (0x83)
Формат : AC-3
Формат/Информация : Audio Coding 3
Режим смешивания : DVD-Video
Продолжительность : 18 м. 2 с.
Вид битрейта : Постоянный
Битрейт : 448 Кбит/сек
Каналы : 6 каналов
Расположение каналов : Front: L C R, Side: L R, LFE
Частота : 48,0 КГц
Частота кадров : 31,250 кадров/сек (1536 SPF)
Битовая глубина : 16 бит
Метод сжатия : С потерями
Размер потока : 57,8 Мбайт (6%)
ServiceKind/String : Complete Main

Текст #1
Идентификатор : 189 (0xBD)-32 (0x20)
Формат : RLE
Формат/Информация : Run-length encoding
Режим смешивания : DVD-Video
Продолжительность : 17 м. 58 с.

Текст #2
Идентификатор : 189 (0xBD)-33 (0x21)
Формат : RLE
Формат/Информация : Run-length encoding
Режим смешивания : DVD-Video
Продолжительность : 17 м. 58 с.

Текст #3
Идентификатор : 189 (0xBD)-34 (0x22)
Формат : RLE
Формат/Информация : Run-length encoding
Режим смешивания : DVD-Video
Продолжительность : 17 м. 58 с.

Текст #4
Идентификатор : 189 (0xBD)-35 (0x23)
Формат : RLE
Формат/Информация : Run-length encoding
Режим смешивания : DVD-Video
Продолжительность : 17 м. 58 с.

Текст #5
Идентификатор : 189 (0xBD)-36 (0x24)
Формат : RLE
Формат/Информация : Run-length encoding
Режим смешивания : DVD-Video
Продолжительность : 17 м. 58 с.

Текст #6
Идентификатор : 189 (0xBD)-37 (0x25)
Формат : RLE
Формат/Информация : Run-length encoding
Режим смешивания : DVD-Video
Продолжительность : 17 м. 58 с.

Текст #7
Идентификатор : 189 (0xBD)-38 (0x26)
Формат : RLE
Формат/Информация : Run-length encoding
Режим смешивания : DVD-Video
Продолжительность : 17 м. 58 с.

Текст #8
Идентификатор : 189 (0xBD)-39 (0x27)
Формат : RLE
Формат/Информация : Run-length encoding
Режим смешивания : DVD-Video
Продолжительность : 17 м. 58 с.

Текст #9
Идентификатор : 189 (0xBD)-40 (0x28)
Формат : RLE
Формат/Информация : Run-length encoding
Режим смешивания : DVD-Video

Текст #10
Идентификатор : 189 (0xBD)-41 (0x29)
Формат : RLE
Формат/Информация : Run-length encoding
Режим смешивания : DVD-Video

Текст #11
Идентификатор : 189 (0xBD)-42 (0x2A)
Формат : RLE
Формат/Информация : Run-length encoding
Режим смешивания : DVD-Video

Текст #12
Идентификатор : 189 (0xBD)-43 (0x2B)
Формат : RLE
Формат/Информация : Run-length encoding
Режим смешивания : DVD-Video

Текст #13
Идентификатор : 189 (0xBD)-44 (0x2C)
Формат : RLE
Формат/Информация : Run-length encoding
Режим смешивания : DVD-Video

Текст #14
Идентификатор : 189 (0xBD)-45 (0x2D)
Формат : RLE
Формат/Информация : Run-length encoding
Режим смешивания : DVD-Video

Текст #15
Идентификатор : 189 (0xBD)-46 (0x2E)
Формат : RLE
Формат/Информация : Run-length encoding
Режим смешивания : DVD-Video

Текст #16
Идентификатор : 189 (0xBD)-47 (0x2F)
Формат : RLE
Формат/Информация : Run-length encoding
Режим смешивания : DVD-Video


Трекер:  [ 08-Мар-2018 18:36 ]

  

Скачать .torrent

Размер .torrent файла 16 KB


Размер: 5.66 GB
Хэш (hash) релиза: 44c09fa0fc058088b989011e0e9bd4b0bdf80f9a
Подписка на обновления:

Еще никто не оставлял запись к записи скачать торрент Лунный флаг Atrapa la bandera . Будь первым!

!Обратная связь