Fox Spirit Matchmaker ... | macOS Mojave 10.14.b1 (18A293u) | Jamie Bamber

Скачать через торрент Нет игры — нет жизни: Начало No Game No Life: Zero бесплатно Аниме Все серии на русском torrent

Статистика раздачи
Размер:  22.36 GB   |    Зарегистрирован:  3 месяца 11 дней   |    .torrent скачан:  24 раза   |   
Раздают:  1  
   
загрузка...
 
Автор Сообщение

Galfimbul

avatar Galfimbul


Нет игры — нет жизни: Начало / No Game No Life: Zero

Год выпуска: 2017
Страна: Япония
Жанр: приключения
Тип: Movie+Special
Продолжительность: 1ч. 47 мин., спешал 3 мин.
Озвучка:

Двухголосая (муж/жен) от Jam & Trina D (AniDub)

Русские субтитры: есть (отдельным файлом, формат .ass)
Перевод:

MeLarie, Lollipop [Risens team] Movie
Horodep, Чифу Special

Хардсаб: Нет
Режиссер: Исидзука Ацуко
Студия: Madhouse

Описание: Эта история происходит за шесть тысяч лет до того, как Сора и Широ появились в истории Дисборда.
Война уничтожила землю, разрывая небеса, разрушая звёзды и даже угрожая уничтожить всё человечество. Среди хаоса и разрушения молодой человек по имени Рику ведёт человечество к завтрашнему дню по велению своего сердца. В один прекрасный день, в руинах города эльфов, он встречает Шуви, девушку-изгнанницу Экс-Машин, которая просит научить её, что значит иметь человеческое сердце.
© SpaKer

Качество: Blu-Ray Remux
Формат: MKV
Видео кодек: AVC
Аудио кодек: FLAC
Видео: 1920x1080 (16:9) 23,976 fps ~24,2 Mbps 8bit
Аудио:
Jap 1 FLAC, 48000Hz, ~3151 Kbps, 5.1ch
Jap 2 FLAC, 48000Hz, ~1341 Kbps, 2ch
RUS (ext) AAC, 48000Hz, ~192 Kbps, 2ch

Чаптеры присутствуют.
Общее
Уникальный идентификатор : 241813369254480567822565895495010845416 (0xB5EB8F95D588B487047E4284379582E8)
Полное имя : Z:\Anime Release - working\No Game No Life\[anti-raws]No Game No Life Zero[BDRemux].mkv
Формат : Matroska
Версия формата : Version 4 / Version 2
Размер файла : 21,8 Гбайт
Продолжительность : 1 ч. 46 м.
Режим общего битрейта : Переменный
Общий поток : 29,3 Мбит/сек
Дата кодирования : UTC 2018-03-01 18:36:39
Программа кодирования : mkvmerge v20.0.0 ('I Am The Sun') 64-bit
Библиотека кодирования : libebml v1.3.5 + libmatroska v1.4.8

Видео
Идентификатор : 3
Формат : AVC
Формат/Информация : Advanced Video Codec
Профиль формата : [email protected]
Настройки формата : CABAC / 4 Ref Frames
Параметр CABAC формата : Да
Параметр RefFrames формата : 4 кадра
Идентификатор кодека : V_MPEG4/ISO/AVC
Продолжительность : 1 ч. 46 м.
Вид битрейта : Постоянный
Битрейт : 25,0 Мбит/сек / 25,0 Мбит/сек
Ширина : 1920 пикселей
Высота : 1080 пикселей
Соотношение сторон : 16:9
Режим частоты кадров : Постоянный
Частота кадров : 23,976 (24000/1001) кадра/сек
Стандарт вещания : Component
Цветовое пространство : YUV
Субдискретизация насыщенности : 4:2:0
Битовая глубина : 8 бит
Тип развёртки : Прогрессивная
Бит/(Пиксели*Кадры) : 0.503
Размер потока : 18,4 Гбайт (85%)
Библиотека кодирования : x264 core 136
Настройки программы : cabac=1 / ref=4 / deblock=1:0:0 / analyse=0x3:0x113 / me=hex / subme=7 / psy=1 / psy_rd=1.00:0.00 / mixed_ref=1 / me_range=16 / chroma_me=1 / trellis=1 / 8x8dct=1 / cqm=2 / deadzone=21,11 / fast_pskip=1 / chroma_qp_offset=-2 / threads=6 / lookahead_threads=1 / sliced_threads=0 / slices=4 / nr=0 / decimate=1 / interlaced=0 / bluray_compat=1 / constrained_intra=0 / bframes=3 / b_pyramid=0 / b_adapt=1 / b_bias=0 / direct=1 / weightb=1 / open_gop=1 / weightp=1 / keyint=24 / keyint_min=1 / scenecut=40 / intra_refresh=0 / rc_lookahead=24 / rc=cbr / mbtree=1 / bitrate=25000 / ratetol=1.0 / qcomp=0.60 / qpmin=3 / qpmax=69 / qpstep=4 / vbv_maxrate=25000 / vbv_bufsize=25000 / nal_hrd=cbr / ip_ratio=1.40 / aq=1:1.00
Default : Нет
Forced : Нет
Цветовой диапазон : Limited
Основные цвета : BT.709
Характеристики трансфера : BT.709
Коэффициенты матрицы : BT.709

Аудио #1
Идентификатор : 1
Формат : FLAC
Формат/Информация : Free Lossless Audio Codec
Идентификатор кодека : A_FLAC
Продолжительность : 1 ч. 46 м.
Вид битрейта : Переменный
Битрейт : 3151 Кбит/сек
Каналы : 6 каналов
Расположение каналов : Front: L C R, Side: L R, LFE
Частота : 48,0 КГц
Частота кадров : 11,719 кадров/сек (4096 SPF)
Битовая глубина : 24 бит
Размер потока : 2,34 Гбайт (11%)
Заголовок : FLAC 5.1
Библиотека кодирования : libFLAC 1.2.1 (UTC 2007-09-17)
Язык : Japanese
Default : Да
Forced : Нет

Аудио #2
Идентификатор : 2
Формат : FLAC
Формат/Информация : Free Lossless Audio Codec
Идентификатор кодека : A_FLAC
Продолжительность : 1 ч. 46 м.
Вид битрейта : Переменный
Битрейт : 1341 Кбит/сек
Каналы : 2 канала
Расположение каналов : Front: L R
Частота : 48,0 КГц
Частота кадров : 11,719 кадров/сек (4096 SPF)
Битовая глубина : 24 бит
Размер потока : 1021 Мбайт (5%)
Заголовок : FLAC 2.0
Библиотека кодирования : libFLAC 1.2.1 (UTC 2007-09-17)
Язык : Japanese
Default : Нет
Forced : Нет

Меню
00:00:00.000 : en:00:00:00.000
00:05:01.468 : en:00:05:01.468
00:13:27.306 : en:00:13:27.306
00:33:18.997 : en:00:33:18.997
00:38:03.823 : en:00:38:03.823
00:44:23.286 : en:00:44:23.286
00:58:42.519 : en:00:58:42.519
01:04:49.636 : en:01:04:49.636
01:13:05.381 : en:01:13:05.381
01:19:51.537 : en:01:19:51.537
01:24:56.091 : en:01:24:56.091
01:33:25.850 : en:01:33:25.850
01:38:44.919 : en:01:38:44.919
01:41:11.565 : en:01:41:11.565
01:46:20.708 : en:01:46:20.708
...5525345
--BDRip

Эта раздача - BDRemux


Трекер:  [ 08-Мар-2018 16:30 ]

  

Скачать .torrent

Размер .torrent файла 29 KB


Размер: 22.36 GB
Хэш (hash) релиза: 2d84dc44ed8e69f207e8a215c9a789bc50517b4d
Подписка на обновления:

Торренты, похожие на Нет игры — нет жизни: Начало No Game No Life: Zero скачать торрент

Форум Название Автор Размер S L Добавлен
Аниме | Rips ·· Нет игры — нет жизни: Начало / No Game No Life: Zero [Movie] [Полухардсаб] [RUS(int), JAP SUB] [2017, приключения, фэнтези, драма, BDRip] [HWP] Galfimbul 18821503311.75 GB 0 0 1527242467

13:01

25-Май-18

Аниме | Rips ·· Нет игры — нет жизни: Начало / No Game No Life: Zero [Movie] [Без хардсаба] [RUS(int), JAP SUB] [2017, приключения, BDRip] [HWP] Galfimbul 18737354451.75 GB 0 0 1520497833

11:30

8-Мар-18

Аниме | Rips ·· Нет игры — нет жизни: Начало / No Game No Life: Zero [Special] [кинотеатральный спешал] [Без хардсаба] [RUS(int), JAP] [2017, приключения, BDRip] Galfimbul 275274678263 MB 0 0 1520433081

17:31

7-Мар-18

Аниме | Rips ·· Нет игры — нет жизни: Начало / No Game No Life: Zero [Movie] [Без хардсаба] [RUS(int)] [2017, приключения, BDRip] Galfimbul 21499582462 GB 0 0 1520173843

17:30

4-Мар-18

Аниме | HD Rips ·· Нет игры — нет жизни: Начало / No Game No Life: Zero [Movie] [Без хардсаба] [JAP+SUB] [2018, приключения, BDRip] [1080p] Galfimbul 86327758058.04 GB 0 0 1519430522

03:02

24-Фев-18

Еще никто не оставлял запись к записи скачать торрент Нет игры — нет жизни: Начало No Game No Life: Zero . Будь первым!

!Обратная связь