Download | HUGTTO! Pretty Cure(HUGっと!プリキュア) | Gutes altes Hemd Return of the Shirt

Скачать через торрент Чужая Серии: 1-8 из 8 Фильм бесплатно в хорошем качестве torrent

Скачивайте на UnionPeer.org фильмы через торрент без регистрации. Новинки кино в хорошем качестве через торрент. На UnionPeer.org можно скачать через торрент фильмы 2014 и 2015 годов. Самые новые фильмы.

Скачать торрент Чужая Серии: 1-8 из 8 бесплатно через .torrent фильм мультфильм сериал

Статистика раздачи
Размер:  21.99 GB   |    Зарегистрирован:  4 месяца 9 дней   |    .torrent скачан:  27 раз   |   
Раздают:  1  
   
загрузка...
 
Автор Сообщение

Galfimbul

avatar Galfimbul


Чужая

Год выпуска: 2018
Производство: Атлантик Продакшн
Жанр: мелодрама, криминальная драма
Продолжительность: ~00:51:00 серия
Субтитры: нет

Режиссёр: Павел Мальков

В ролях: Елена Аросьева, Дмитрий Исаев, Евгений Пронин, Денис Матросов, Светлана Щедрина, Диана Дезмари, Галина Бокашевская, Михаил Разумовский, Вячеслав Аркунов, Полина Ульянова, Алёша Шаблюк

Описание: Катя Полякова (Елена Аросьева) два года назад попала в автомобильную аварию. Сейчас она проходит реабилитацию, швы заживают отлично. Ее во всем поддерживает любящий муж Сергей (Дмитрий Исаев). Девушку вгоняет в отчаяние только одно – она потеряла память, и за эти годы так ничего и не смогла вспомнить: ни аварию, ни мужа, ни свою прошлую жизнь. Все вокруг кажется Кате чужим. Недавно в парке она встретила знакомого из прошлой жизни - Дмитрия (Евгений Пронин), которого тоже не смогла вспомнить. Дмитрий узнал ее, но быстро ушел, ничего не объяснив. Лишь попросил не рассказывать ничего мужу...

Реклама: Нет.

Кинопоиск
Все раздачи сериала
Sample

Качество: HDTV 1080i - daboen
Формат: TS
Видео кодек: AVC
Аудио кодек: MP2
Видео: MPEG4 AVC Video, H264, 16:9, 1920x1080, 25 fps, ~7070 kbps, 0.137 bit/pixel
Аудио: MP2, 2 ch, 192 kbps, 16 bits, 48.0 KHz
General
ID : 1 (0x1)
Complete name : D:\Chuzhaya.2018.HDTV.1080i\Chuzhaya.01.2018.HDTV.1080i.ts
Format : MPEG-TS
File size : 2.75 GiB
Duration : 51mn 27s
Overall bit rate mode : Variable
Overall bit rate : 7 649 Kbps

Video
ID : 2911 (0xB5F)
Menu ID : 1192 (0x4A8)
Format : AVC
Format/Info : Advanced Video Codec
Format profile : [email protected]
Format settings, CABAC : Yes
Format settings, ReFrames : 4 frames
Codec ID : 27
Duration : 51mn 27s
Bit rate : 7 077 Kbps
Width : 1 920 pixels
Height : 1 080 pixels
Display aspect ratio : 16:9
Frame rate : 25.000 fps
Color space : YUV
Chroma subsampling : 4:2:0
Bit depth : 8 bits
Scan type : MBAFF
Bits/(Pixel*Frame) : 0.137
Stream size : 2.54 GiB (93%)

Audio
ID : 2912 (0xB60)
Menu ID : 1192 (0x4A8)
Format : MPEG Audio
Format version : Version 1
Format profile : Layer 2
Codec ID : 3
Duration : 51mn 27s
Bit rate mode : Constant
Bit rate : 192 Kbps
Channel count : 2 channels
Sampling rate : 48.0 KHz
Compression mode : Lossy
Delay relative to video : -200ms
Stream size : 70.7 MiB (3%)
Language : Russian


Трекер:  [ 08-Мар-2018 15:48 ]

  

Скачать .torrent

Размер .torrent файла 111 KB


Размер: 21.99 GB
Хэш (hash) релиза: 33a1e6d12575f8e671dc76936c8edef35397635b
Подписка на обновления:

Торренты, похожие на Чужая Серии: 1-8 из 8 скачать торрент

Форум Название Автор Размер S L Добавлен
Российские сериалы ·· Чужая / Серии: 1-8 из 8 (Павел Мальков) [2018, мелодрама, криминальная драма, WEBRip-AVC] Galfimbul 55495660975.17 GB 0 0 1520513431

15:50

8-Мар-18

Зарубежные сериалы ·· Под чужим флагом / Фальшивый флаг / Kfulim / False Flag / Doubled / כפולים / Сезон: 1 / Серии: 1-8 из 8 (Одед Раскин / Oded Raskin) [2015, Израиль, драма, триллер, HDTVRip] MVO (FOX) + Original + Sub Rus Galfimbul 81391904467.58 GB 0 0 1517396078

13:54

31-Янв-18

Зарубежные сериалы ·· Под чужим флагом / Фальшивый флаг / Kfulim / False Flag / Doubled / כפולים / Сезон: 1 / Серии: 1-8 из 8 (Одед Раскин / Oded Raskin) [2015, Израиль, драма, триллер, HDTVRip] MVO (FOX) + Original Galfimbul 46342656004.32 GB 0 0 1508414089

14:54

19-Окт-17

Российские сериалы ·%· Чужие родные / Серии: 1-8 из 8 (Александр Итыгилов) [2017, мелодрама, HDTVRip 720p] Galfimbul 1087687128910.13 GB 0 0 1530292352

20:12

29-Июн-18

Российские сериалы ·· Чужие родные / Серии: 1-8 из 8 (Александр Итыгилов) [2017, мелодрама, WEBRip] Galfimbul 48271400964.5 GB 0 0 1520374917

01:21

7-Мар-18

Российские сериалы ·· Чужие родные / Серии: 1-8 из 8 (Александр Итыгилов) [2017, мелодрама, WEBRip-AVC] Galfimbul 47977151984.47 GB 0 0 1520374904

01:21

7-Мар-18

Российские сериалы ·· Чужая дочь / Серии: 1-8 из 8 (Сергей Газаров) [2016, драма, криминал, HDTVRip 720p] Galfimbul 107273183429.99 GB 0 0 1517910687

12:51

6-Фев-18

Российские сериалы ·· Чужая дочь / Серии: 1-8 из 8 (Сергей Газаров) [2016, драма, криминал, WEBRip 1080p] Galfimbul 1419509005313.22 GB 0 0 1517894535

08:22

6-Фев-18

Российские сериалы ·· Чужая дочь / Серии: 1-8 из 8 (Сергей Газаров) [2018, Драма, криминал, WEBRip] Galfimbul 54466990085.07 GB 0 0 1517867556

00:52

6-Фев-18

Российские сериалы ·· Чужая дочь / Серии: 1-8 из 8 (Сергей Газаров) [2016,драма, криминал, SATRip-AVC] aleksan55 49163192544.58 GB 0 0 1517850878

20:14

5-Фев-18

Российские сериалы ·· Чужое лицо / серии: 1-8 из 8 (Алексей Карелин) [2003, драма, мелодрама, 2 * DVD9] Galfimbul 1227951012011.44 GB 0 0 1496474367

10:19

3-Июн-17

Российские сериалы ·· Чужое счастье / Серии: 1-8 из 8 (Борис Рабей, Анна Ерофеева) [2017, Мелодрама, HDTVRip] Galfimbul 58756669445.47 GB 0 0 1489229323

13:48

11-Мар-17

Российские сериалы ·· Чужое лицо / (Серии: 1-8 из 8) (Сергей Басин) [2012, Мелодрама, шпионский фильм, SATRip-AVC] Galfimbul 30273430792.82 GB 0 0 1361696341

11:59

24-Фев-13

Российские сериалы ·· Чужая / Серии: 1-2 из 8 (Павел Мальков) [2017, Мелодрама, WEBRip] Galfimbul 13598617601.27 GB 0 0 1520319059

09:50

6-Мар-18

Российские сериалы ·· Чужое лицо (Алексей Карелин) (Сезон 1, Серии 8 из 8) [2003 г., Мелодрама, драма, DVDRip] Солнышко 46100602884.29 GB 0 0 1304186432

21:00

30-Апр-11

Зарубежные сериалы ·· Под чужим флагом / False Flag / Сезон: 1 / Серии: 5-7 из 8 (Одед Рускин) [2014, Израиль, драма, триллер, HDTVRip] MVO (FOX) Galfimbul 16993159171.58 GB 0 0 1507605807

06:23

10-Окт-17

Зарубежные сериалы ·· Родина / Чужой среди своих / Homeland / Сезон: 8 / Серии: 1 из 12 (Лесли Линка Глаттер, Майкл Куэста, Дэниэл Эттиэс) [2018, США, триллер, драма, криминал, детектив, WEB-DLRip] MVO (LostFilm) + Original Galfimbul 791656448755 MB 0 0 1518582111

07:21

14-Фев-18

Еще никто не оставлял запись к записи скачать торрент Чужая Серии: 1-8 из 8 . Будь первым!

!Обратная связь