Ральф против интернета / Ralph Breaks the Internet: Wreck-It Ralph 2 (2018) | Télécharger Part 1 | Bluray 8.2 V for Vendetta (2005)

Скачать через торрент Нет игры — нет жизни: Начало No Game No Life: Zero бесплатно Аниме Все серии на русском torrent

Статистика раздачи
Размер:  1.75 GB   |    Зарегистрирован:  4 месяца 13 дней   |    .torrent скачан:  57 раз   |   
Раздают:  1  
   
загрузка...
 
Автор Сообщение

Galfimbul

avatar Galfimbul


Нет игры — нет жизни: Начало / No Game No Life: Zero / ノーゲーム・ノーライフ ゼロ



Страна: Япония
Год выпуска: 2017 г.
Жанр: Приключения
Тип: Movie
Продолжительность: 110 мин.
Режиссер: Исидзука Ацуко
Студия: Madhouse



Описание : Эта история происходит за шесть тысяч лет до того, как Сора и Широ появились в истории Дисборда.
Война уничтожила землю, разрывая небеса, разрушая звёзды и даже угрожая уничтожить всё человечество. Среди хаоса и разрушения молодой человек по имени Рику ведёт человечество к завтрашнему дню по велению своего сердца. В один прекрасный день, в руинах города эльфов, он встречает Шуви, девушку-изгнанницу Экс-Машин, которая просит научить её, что значит иметь человеческое сердце.



world-art | AniDB | MyAnimeList | Офиц. Сайт



Перевод:

Субтитры: Risens team
Перевод: MeLarie и Lollipop

Озвучка:

Озвучка: AniDub
- двухголосая (муж./жен.): Jam, Trina D
По переводу: Добрые люди
Тайминг и работа со звуком: Angrod, ValeK_TV



Автор рипа и релиза : Страник 2.0

Качество: BDRip (исходник: эта раздача, спасибо Horodep)
Тип релиза: Без хардсаба
Формат видео: AVI
Наличие линковки: Нет
Видео: XviD, 720x400 (16:9), 1776 Кбит/с, 23.976 fps, 8 bit
Аудио 1: Русский, AC3, 192 Кбит/с, 48.0 Hz, 2 ch (в составе контейнера)
Аудио 2: Японский, AC3, 384 Кбит/с, 48.0 Hz, 6 ch (в составе контейнера)
Субтитры 1(srt): Русские (внешним файлом)
Субтитры 2(srt): Английские перевод: AnimeInDead (внешним файлом)




General
Complete name : E:/Torrent_2/No Game No Life Zero (2017, XviD BDRip, RUS JAP+SUB) [Stranik 2.0]/No Game No Life Zero (2017, XviD BDRip, RUS JAP+SUB) [Stranik 2.0].avi
Format : AVI
Format/Info : Audio Video Interleave
File size : 1.74 GiB
Duration : 1h 45mn
Overall bit rate : 2 357 Kbps
Writing application : VirtualDubMod 1.5.10.3 (build 2550/release)
Writing library : VirtualDubMod build 2550/release

Video #0
ID : 0
Format : MPEG-4 Visual
Format profile : Advanced [email protected]
Format settings, BVOP : 2
Format settings, QPel : No
Format settings, GMC : No warppoints
Format settings, Matrix : Custom
Codec ID : XVID
Codec ID/Hint : XviD
Duration : 1h 45mn
Bit rate : 1 767 Kbps
Width : 720 pixels
Height : 400 pixels
Display aspect ratio : 16:9
Frame rate : 23.976 fps
Color space : YUV
Chroma subsampling : 4:2:0
Bit depth : 8 bits
Scan type : Progressive
Compression mode : Lossy
Bits/(Pixel*Frame) : 0.256
Stream size : 1.31 GiB (75%)
Writing library : XviD 67

Audio #1
ID : 1
Format : AC-3
Format/Info : Audio Coding 3
Mode extension : CM (complete main)
Format settings, Endianness : Big
Codec ID : 2000
Duration : 1h 45mn
Bit rate mode : Constant
Bit rate : 192 Kbps
Channel(s) : 2 channels
Channel positions : Front: L R
Sampling rate : 48.0 KHz
Bit depth : 16 bits
Compression mode : Lossy
Stream size : 146 MiB (8%)
Alignment : Split accross interleaves
Interleave, duration : 42 ms (1.00 video frame)
Interleave, preload duration : 500 ms

Audio #2
ID : 2
Format : AC-3
Format/Info : Audio Coding 3
Mode extension : CM (complete main)
Format settings, Endianness : Big
Codec ID : 2000
Duration : 1h 45mn
Bit rate mode : Constant
Bit rate : 384 Kbps
Channel(s) : 6 channels
Channel positions : Front: L C R, Side: L R, LFE
Sampling rate : 48.0 KHz
Bit depth : 16 bits
Compression mode : Lossy
Stream size : 291 MiB (16%)
Alignment : Split accross interleaves
Interleave, duration : 42 ms (1.00 video frame)
Interleave, preload duration : 500 ms
Моя максимальная скорость отдачи 100КБ/c
Раздаю с 7:00 до 00:00 по Москве

Трекер:  [ 08-Мар-2018 11:30 ]

  

Скачать .torrent

Размер .torrent файла 18 KB


Размер: 1.75 GB
Хэш (hash) релиза: e480aab5cd5b5296f4d07865d007b65f905497c5
Подписка на обновления:

Торренты, похожие на Нет игры — нет жизни: Начало No Game No Life: Zero скачать торрент

Форум Название Автор Размер S L Добавлен
Аниме | Rips ·· Нет игры — нет жизни: Начало / No Game No Life: Zero [Movie] [Полухардсаб] [RUS(int), JAP SUB] [2017, приключения, фэнтези, драма, BDRip] [HWP] Galfimbul 18821503311.75 GB 0 0 1527242467

13:01

25-Май-18

Аниме | HD Rips ·· Нет игры — нет жизни: Начало / No Game No Life: Zero [Movie+Special] [без хардсаба] [1+1 из 1+1] [JAP+SUB] & [1+0 из 1+1] [RUS(ext)] [2017, приключения, BDRemux] [1080p] Galfimbul 2401421800122.36 GB 0 0 1520515894

16:31

8-Мар-18

Аниме | Rips ·· Нет игры — нет жизни: Начало / No Game No Life: Zero [Special] [кинотеатральный спешал] [Без хардсаба] [RUS(int), JAP] [2017, приключения, BDRip] Galfimbul 275274678263 MB 0 0 1520433081

17:31

7-Мар-18

Аниме | Rips ·· Нет игры — нет жизни: Начало / No Game No Life: Zero [Movie] [Без хардсаба] [RUS(int)] [2017, приключения, BDRip] Galfimbul 21499582462 GB 0 0 1520173843

17:30

4-Мар-18

Аниме | HD Rips ·· Нет игры — нет жизни: Начало / No Game No Life: Zero [Movie] [Без хардсаба] [JAP+SUB] [2018, приключения, BDRip] [1080p] Galfimbul 86327758058.04 GB 0 0 1519430522

03:02

24-Фев-18

Еще никто не оставлял запись к записи скачать торрент Нет игры — нет жизни: Начало No Game No Life: Zero . Будь первым!

!Обратная связь