A Dog's Purpose | Competências | Blackmail (2018)

Скачать через торрент музыку Леди Бёрд Lady Bird бесплатно без регистрации torrent

Статистика раздачи
Размер:  360 MB   |    Зарегистрирован:  4 месяца 9 дней   |    .torrent скачан:  12 раз   |   
Раздают:  1  
   
загрузка...
 
Автор Сообщение

Galfimbul

avatar Galfimbul


Леди Бёрд / Lady Bird

Название альбома: Lady Bird
Жанр: Soundtrack
Композитор: VA
Год выпуска диска: 2018
Год выпуска фильма: 2017
Производитель диска: US
Издатель (лейбл): Lakeshore Records
Номер по каталогу: 19075820682
Аудиокодек: FLAC
Тип рипа: tracks+.cue
Битрейт аудио: lossless
Продолжительность: 00:53:05
Источник: Спасибо, Filex
ID3-теги: да
Наличие сканов в содержимом раздачи: да
01. Lady Bird - Prayer of St. Francis (From St. Francis Hymn) (0:21)
02. Alanis Morissette - Hand in My Pocket (3:38)
03. HAIM - Little of Your Love (3:33)
04. Adolf Fredrik Girls Choir - Panis Angelicus (3:33)
05. Lady Bird - 'It's Given to Me - by Me' (0:09)
06. John Cale - Days of Steam (1:58)
07. The Monkees - As We Go Along (3:53)
08. Lady Bird - 'Center of Attention' (0:04)
09. The Original Broadway Cast and Orchestra - Overture (From 'Merrily We Roll Along') (3:52)
10. Dave Matthews Band - Crash Into Me (5:14)
11. Altered Images - Happy Birthday (2:59)
12. Lady Bird - 'City College' (0:10)
13. Reel Big Fish - Snoop Dog, Baby (3:26)
14. Love - Always See Your Face (3:19)
15. St. Louis Symphony & Leonard Slatkin - Waltz of the Flowers ('The Nutcracker', Excerpt) (2:10)
16. John Hartford - This Eve of Parting (2:33)
17. Lady Bird - 'Wrong Side of the Tracks' (0:13)
18. Ani DiFranco - Little Plastic Castle (4:04)
19. Bone Thugs-N-Harmony - Tha Crossroads (3:45)
20. The University of Notre Dame Folk Choir - Rosa Mystica (3:58)
21. Lady Bird - 'Let's Just Sit' (0:13)
Exact Audio Copy V1.3 from 2. September 2016

EAC extraction logfile from 7. March 2018, 22:20

Various Artists / Lady Bird

Used drive : PLEXTOR CD-R PX-230A Adapter: 1 ID: 0

Read mode : SecureUtilize accurate stream : YesDefeat audio cache : YesMake use of C2 pointers : No

Read offset correction : 738Overread into Lead-In and Lead-Out : NoFill up missing offset samples with silence : YesDelete leading and trailing silent blocks : NoNull samples used in CRC calculations : YesUsed interface : Native Win32 interface for Win NT & 2000Gap handling : Appended to previous track

Used output format : User Defined EncoderSelected bitrate : 1024 kBit/sQuality : HighAdd ID3 tag : NoCommand line compressor : C:\Program Files\Exact Audio Copy\Flac\flac.exeAdditional command line options : -6 -V -T "ARTIST=%artist%" -T "TITLE=%title%" -T "ALBUM=%albumtitle%" -T "DATE=%year%" -T "TRACKNUMBER=%tracknr%" -T "GENRE=%genre%" -T "COMMENT=%comment%" -T "ALBUMARTIST=%albuminterpret%" -T "COMPOSER=%composer%" -T "DISCNUMBER=%cdnumber%" -T "TOTALDISCS=%totalcds%" -T "TOTALTRACKS=%numtracks%" %source% -o %dest%

TOC of the extracted CD

Track | Start | Length | Start sector | End sector --------------------------------------------------------- 1 | 0:00.00 | 0:21.03 | 0 | 1577 2 | 0:21.03 | 3:38.13 | 1578 | 17940 3 | 3:59.16 | 3:33.36 | 17941 | 33951 4 | 7:32.52 | 3:33.00 | 33952 | 49926 5 | 11:05.52 | 0:09.32 | 49927 | 50633 6 | 11:15.09 | 1:58.28 | 50634 | 59511 7 | 13:13.37 | 3:52.71 | 59512 | 76982 8 | 17:06.33 | 0:04.09 | 76983 | 77291 9 | 17:10.42 | 3:52.16 | 77292 | 94707 10 | 21:02.58 | 5:13.46 | 94708 | 118228 11 | 26:16.29 | 2:58.53 | 118229 | 131631 12 | 29:15.07 | 0:10.36 | 131632 | 132417 13 | 29:25.43 | 3:25.65 | 132418 | 147857 14 | 32:51.33 | 3:19.06 | 147858 | 162788 15 | 36:10.39 | 2:09.67 | 162789 | 172530 16 | 38:20.31 | 2:32.45 | 172531 | 183975 17 | 40:53.01 | 0:13.34 | 183976 | 184984 18 | 41:06.35 | 4:03.40 | 184985 | 203249 19 | 45:10.00 | 3:45.04 | 203250 | 220128 20 | 48:55.04 | 3:57.61 | 220129 | 237964 21 | 52:52.65 | 0:13.00 | 237965 | 238939

Track 1

Filename C:\Ripped by Filex\01 - Lady Bird - Prayer of St. Francis (From St. Francis Hymn).wav

Pre-gap length 0:00:02.00

Peak level 46.0 % Extraction speed 3.3 X Track quality 100.0 % Test CRC 87F7170D Copy CRC 87F7170D Track not present in AccurateRip database Copy OK

Track 2

Filename C:\Ripped by Filex\02 - Alanis Morissette - Hand in My Pocket.wav

Pre-gap length 0:00:00.34

Peak level 90.0 % Extraction speed 6.5 X Track quality 100.0 % Test CRC 58DD16F6 Copy CRC 58DD16F6 Track not present in AccurateRip database Copy OK

Track 3

Filename C:\Ripped by Filex\03 - HAIM - Little of Your Love.wav

Peak level 58.3 % Extraction speed 5.7 X Track quality 99.9 % Test CRC E997E739 Copy CRC E997E739 Track not present in AccurateRip database Copy OK

Track 4

Filename C:\Ripped by Filex\04 - Adolf Fredrik Girls Choir - Panis Angelicus.wav

Pre-gap length 0:00:00.71

Peak level 91.4 % Extraction speed 7.3 X Track quality 100.0 % Test CRC D62A7E6E Copy CRC D62A7E6E Track not present in AccurateRip database Copy OK

Track 5

Filename C:\Ripped by Filex\05 - Lady Bird - 'It's Given to Me - by Me'.wav

Peak level 70.9 % Extraction speed 2.4 X Track quality 100.0 % Test CRC A10CD638 Copy CRC A10CD638 Track not present in AccurateRip database Copy OK

Track 6

Filename C:\Ripped by Filex\06 - John Cale - Days of Steam.wav

Peak level 70.6 % Extraction speed 6.6 X Track quality 100.0 % Test CRC 04283C07 Copy CRC 04283C07 Track not present in AccurateRip database Copy OK

Track 7

Filename C:\Ripped by Filex\07 - The Monkees - As We Go Along.wav

Peak level 75.6 % Extraction speed 7.5 X Track quality 100.0 % Test CRC EAC03D71 Copy CRC EAC03D71 Track not present in AccurateRip database Copy OK

Track 8

Filename C:\Ripped by Filex\08 - Lady Bird - 'Center of Attention'.wav

Peak level 91.5 % Extraction speed 1.2 X Track quality 100.0 % Test CRC EBA56CC0 Copy CRC EBA56CC0 Track not present in AccurateRip database Copy OK

Track 9

Filename C:\Ripped by Filex\09 - The Original Broadway Cast and Orchestra - Overture (From 'Merrily We Roll Along').wav

Peak level 77.6 % Extraction speed 7.9 X Track quality 100.0 % Test CRC 33449FED Copy CRC 33449FED Track not present in AccurateRip database Copy OK

Track 10

Filename C:\Ripped by Filex\10 - Dave Matthews Band - Crash Into Me.wav

Peak level 96.2 % Extraction speed 8.5 X Track quality 100.0 % Test CRC 8A9D2403 Copy CRC 8A9D2403 Track not present in AccurateRip database Copy OK

Track 11

Filename C:\Ripped by Filex\11 - Altered Images - Happy Birthday.wav

Peak level 78.9 % Extraction speed 8.4 X Track quality 100.0 % Test CRC 09E8E6BB Copy CRC 09E8E6BB Track not present in AccurateRip database Copy OK

Track 12

Filename C:\Ripped by Filex\12 - Lady Bird - 'City College'.wav

Peak level 80.0 % Extraction speed 3.0 X Track quality 100.0 % Test CRC F6B51E24 Copy CRC F6B51E24 Track not present in AccurateRip database Copy OK

Track 13

Filename C:\Ripped by Filex\13 - Reel Big Fish - Snoop Dog, Baby.wav

Peak level 72.1 % Extraction speed 8.7 X Track quality 100.0 % Test CRC 7B4EC161 Copy CRC 7B4EC161 Track not present in AccurateRip database Copy OK

Track 14

Filename C:\Ripped by Filex\14 - Love - Always See Your Face.wav

Peak level 73.7 % Extraction speed 9.0 X Track quality 100.0 % Test CRC B4D8B61A Copy CRC B4D8B61A Track not present in AccurateRip database Copy OK

Track 15

Filename C:\Ripped by Filex\15 - St. Luis Symphony & Leonard Slatkin - Waltz of the Flowers ('The Nutcracker', Excerpt).wav

Peak level 89.1 % Extraction speed 8.6 X Track quality 100.0 % Test CRC 055C3635 Copy CRC 055C3635 Track not present in AccurateRip database Copy OK

Track 16

Filename C:\Ripped by Filex\16 - John Hartford - This Eve of Parting.wav

Peak level 69.5 % Extraction speed 9.0 X Track quality 100.0 % Test CRC 5EB71AAC Copy CRC 5EB71AAC Track not present in AccurateRip database Copy OK

Track 17

Filename C:\Ripped by Filex\17 - Lady Bird - 'Wrong Side of the Tracks'.wav

Peak level 73.3 % Extraction speed 3.8 X Track quality 100.0 % Test CRC 23D900F7 Copy CRC 23D900F7 Track not present in AccurateRip database Copy OK

Track 18

Filename C:\Ripped by Filex\18 - Ani DiFranco - Little Plastic Castle.wav

Peak level 91.3 % Extraction speed 9.8 X Track quality 100.0 % Test CRC 0A8B52B1 Copy CRC 0A8B52B1 Track not present in AccurateRip database Copy OK

Track 19

Filename C:\Ripped by Filex\19 - Bone Thugs-N-Harmony - Tha Crossroads.wav

Peak level 87.0 % Extraction speed 10.0 X Track quality 100.0 % Test CRC 96572B35 Copy CRC 96572B35 Track not present in AccurateRip database Copy OK

Track 20

Filename C:\Ripped by Filex\20 - The University of Notre Dame Folk Choir - Rosa Mystica.wav

Pre-gap length 0:00:01.24

Peak level 97.6 % Extraction speed 10.4 X Track quality 100.0 % Test CRC FA57BCA0 Copy CRC FA57BCA0 Track not present in AccurateRip database Copy OK

Track 21

Filename C:\Ripped by Filex\21 - Lady Bird - 'Let's Just Sit'.wav

Peak level 35.9 % Extraction speed 1.8 X Track quality 99.1 % Test CRC 3348B8B7 Copy CRC 3348B8B7 Track not present in AccurateRip database Copy OK

None of the tracks are present in the AccurateRip database

No errors occurred

End of status report

---- CUETools DB Plugin V2.1.6

[CTDB TOCID: UmAequvOPEHI0YvdUj3.FgtPr7o-] foundSubmit result: UmAequvOPEHI0YvdUj3.FgtPr7o- has been confirmedTrack | CTDB Status 1 | (3/3) Accurately ripped 2 | (3/3) Accurately ripped 3 | (3/3) Accurately ripped 4 | (3/3) Accurately ripped 5 | (3/3) Accurately ripped 6 | (3/3) Accurately ripped 7 | (3/3) Accurately ripped 8 | (3/3) Accurately ripped 9 | (3/3) Accurately ripped 10 | (3/3) Accurately ripped 11 | (3/3) Accurately ripped 12 | (3/3) Accurately ripped 13 | (3/3) Accurately ripped 14 | (3/3) Accurately ripped 15 | (3/3) Accurately ripped 16 | (3/3) Accurately ripped 17 | (3/3) Accurately ripped 18 | (3/3) Accurately ripped 19 | (3/3) Accurately ripped 20 | (3/3) Accurately ripped 21 | (3/3) Accurately ripped

==== Log checksum 9722C1CF36C67D49955B0681EE09306DB8BA17EC28FCD55A10586EC760CC3B77 ====
REM GENRE SoundtrackREM DATE 2018REM DISCID 2F0C7115REM COMMENT "ExactAudioCopy v1.3"PERFORMER "Various Artists"TITLE "Lady Bird"FILE "01 - Prayer of St. Francis (From St. Francis Hymn).wav" WAVE TRACK 01 AUDIO TITLE "Prayer of St. Francis (From St. Francis Hymn)" PERFORMER "Lady Bird" INDEX 01 00:00:00 TRACK 02 AUDIO TITLE "Hand in My Pocket" PERFORMER "Alanis Morissette" INDEX 00 00:20:44FILE "02 - Hand in My Pocket.wav" WAVE INDEX 01 00:00:00FILE "03 - Little of Your Love.wav" WAVE TRACK 03 AUDIO TITLE "Little of Your Love" PERFORMER "HAIM" INDEX 01 00:00:00 TRACK 04 AUDIO TITLE "Panis Angelicus" PERFORMER "Adolf Fredrik Girls Choir" INDEX 00 03:32:40FILE "04 - Panis Angelicus.wav" WAVE INDEX 01 00:00:00FILE "05 - It's Given to Me - by Me.wav" WAVE TRACK 05 AUDIO TITLE "'It's Given to Me - by Me'" PERFORMER "Lady Bird" INDEX 01 00:00:00FILE "06 - Days of Steam.wav" WAVE TRACK 06 AUDIO TITLE "Days of Steam" PERFORMER "John Cale" INDEX 01 00:00:00FILE "07 - As We Go Along.wav" WAVE TRACK 07 AUDIO TITLE "As We Go Along" PERFORMER "The Monkees" INDEX 01 00:00:00FILE "08 - Center of Attention.wav" WAVE TRACK 08 AUDIO TITLE "'Center of Attention'" PERFORMER "Lady Bird" INDEX 01 00:00:00FILE "09 - Overture (From 'Merrily We Roll Along').wav" WAVE TRACK 09 AUDIO TITLE "Overture (From 'Merrily We Roll Along')" PERFORMER "The Original Broadway Cast and Orchestra" INDEX 01 00:00:00FILE "10 - Crash Into Me.wav" WAVE TRACK 10 AUDIO TITLE "Crash Into Me" PERFORMER "Dave Matthews Band" INDEX 01 00:00:00FILE "11 - Happy Birthday.wav" WAVE TRACK 11 AUDIO TITLE "Happy Birthday" PERFORMER "Altered Images" INDEX 01 00:00:00FILE "12 - City College.wav" WAVE TRACK 12 AUDIO TITLE "'City College'" PERFORMER "Lady Bird" INDEX 01 00:00:00FILE "13 - Snoop Dog, Baby.wav" WAVE TRACK 13 AUDIO TITLE "Snoop Dog, Baby" PERFORMER "Reel Big Fish" INDEX 01 00:00:00FILE "14 - Always See Your Face.wav" WAVE TRACK 14 AUDIO TITLE "Always See Your Face" PERFORMER "Love" INDEX 01 00:00:00FILE "15 - Waltz of the Flowers ('The Nutcracker', Excerpt).wav" WAVE TRACK 15 AUDIO TITLE "Waltz of the Flowers ('The Nutcracker', Excerpt)" PERFORMER "St. Louis Symphony & Leonard Slatkin" INDEX 01 00:00:00FILE "16 - This Eve of Parting.wav" WAVE TRACK 16 AUDIO TITLE "This Eve of Parting" PERFORMER "John Hartford" INDEX 01 00:00:00FILE "17 - Wrong Side of the Tracks.wav" WAVE TRACK 17 AUDIO TITLE "'Wrong Side of the Tracks'" PERFORMER "Lady Bird" INDEX 01 00:00:00FILE "18 - Little Plastic Castle.wav" WAVE TRACK 18 AUDIO TITLE "Little Plastic Castle" PERFORMER "Ani DiFranco" INDEX 01 00:00:00FILE "19 - Tha Crossroads.wav" WAVE TRACK 19 AUDIO TITLE "Tha Crossroads" PERFORMER "Bone Thugs-N-Harmony" INDEX 01 00:00:00 TRACK 20 AUDIO TITLE "Rosa Mystica" PERFORMER "The University of Notre Dame Folk Choir" INDEX 00 03:43:55FILE "20 - Rosa Mystica.wav" WAVE INDEX 01 00:00:00FILE "21 - Let's Just Sit.wav" WAVE TRACK 21 AUDIO TITLE "'Let's Just Sit'" PERFORMER "Lady Bird" INDEX 01 00:00:00


RG Soundtracks


Трекер:  [ 08-Мар-2018 09:06 ]

  

Скачать .torrent

Размер .torrent файла 16 KB


Размер: 360 MB
Хэш (hash) релиза: bdd4fcd3097e50facf0b93e895d714cd833e659c

Торренты, похожие на Леди Бёрд Lady Bird скачать торрент

Форум Название Автор Размер S L Добавлен
Саундтреки к фильмам и мультфильмам (mp3) ·· (Soundtrack) Леди Бёрд / Lady Bird (by Various artists) - 2018, MP3, 320 kbps Galfimbul 172050852164 MB 0 0 1523718382

18:06

14-Апр-18

Саундтреки к фильмам и мультфильмам (mp3) ·· (Score) Леди Бёрд / Lady Bird (by Jon Brion) - 2018, MP3, 320 kbps Galfimbul 118622803113 MB 0 0 1523718374

18:06

14-Апр-18

Саундтреки к фильмам и мультфильмам (lossless) ·· (Score) Леди Бёрд / Lady Bird (by Jon Brion ) - 2018 (2017), FLAC (tracks+.cue), lossless Galfimbul 186007664177 MB 0 0 1520448101

21:41

7-Мар-18

Еще никто не оставлял запись к записи скачать торрент Леди Бёрд Lady Bird . Будь первым!

!Обратная связь