Brie Bella | Manga Rock – Best Manga Reader v3.4.2 [Premium] | Regarder La Belle et la Bête en Streaming Gratuit

Скачать через торрент музыку бесплатно без регистрации torrent

Статистика раздачи
Размер:  215 MB   |    Зарегистрирован:  3 месяца 13 дней   |    .torrent скачан:  16 раз   |   
Раздают:  1  
   
загрузка...
 
Автор Сообщение

Galfimbul

avatar Galfimbul


Три биллборда на границе Эббинга, Миссури / Three Billboards Outside Ebbing, Missouri

Название альбома: Three Billboards Outside Ebbing, Missouri
Жанр: Score
Композитор: Carter Burwell, VA
Год выпуска диска: 2017
Год выпуска фильма: 2017
Производитель диска: US
Издатель (лейбл): First Score Music Limited, under exclusive license to Varese Sarabande Records
Номер по каталогу: 302 067 536 8
Аудиокодек: FLAC
Тип рипа: tracks+.cue
Битрейт аудио: lossless
Продолжительность: 00:44:05
Источник: скачано из сети
ID3-теги: да
Наличие сканов в содержимом раздачи: да (только обложка)
01. Carter Burwell - Mildred Goes to War (1:24)
02. Carter Burwell - The Deer (2:10)
03. Townes Van Zandt - Buckskin Stallion Blues (3:01)
04. Carter Burwell - A Cough of Blood, a Dark Drive (2:39)
05. Carter Burwell - I've Been Arrested (0:40)
06. Carter Burwell - Fruit Loops (1:32)
07. Monsters of Folk - His Master's Voice (4:50)
08. Carter Burwell - Billboards On Fire (2:26)
09. Carter Burwell - Slippers (1:23)
10. Renee Fleming - Martha: The Last Rose of Summer (Thomas Moore) (4:53)
11. Carter Burwell - My Dear Anne (2:38)
12. The Four Tops - Walk Away Renee (2:43)
13. Carter Burwell - Billboards Are Back (1:26)
14. Carter Burwell - Collecting Samples (1:17)
15. Carter Burwell - Sorry Welby (1:46)
16. Joan Baez - The Night They Drove Old Dixie Down (3:23)
17. Carter Burwell - Countermove (1:59)
18. Carter Burwell - Can't Give Up Hope (0:33)
19. Amy Annelle - Buckskin Stallion Blues (3:21)
Exact Audio Copy V1.3 from 2. September 2016

EAC extraction logfile from 19. February 2018, 17:38

Various / Three Billboards Outside Ebbing, Missouri

Used drive : HL-DT-STDVDRAM GP50NB40 Adapter: 1 ID: 0

Read mode : SecureUtilize accurate stream : YesDefeat audio cache : YesMake use of C2 pointers : No

Read offset correction : 6Overread into Lead-In and Lead-Out : NoFill up missing offset samples with silence : YesDelete leading and trailing silent blocks : NoNull samples used in CRC calculations : YesUsed interface : Native Win32 interface for Win NT & 2000Gap handling : Appended to previous track

Used output format : User Defined EncoderSelected bitrate : 1024 kBit/sQuality : HighAdd ID3 tag : NoCommand line compressor : C:\Program Files (x86)\Exact Audio Copy\Flac\flac.exeAdditional command line options : -8 -V -T "artist=%artist%" -T "title=%title%" -T "album=%albumtitle%" -T "date=%year%" -T "tracknumber=%tracknr%" -T "genre=%genre%" %source%

TOC of the extracted CD

Track | Start | Length | Start sector | End sector --------------------------------------------------------- 1 | 0:00.00 | 1:24.18 | 0 | 6317 2 | 1:24.18 | 2:09.62 | 6318 | 16054 3 | 3:34.05 | 3:04.11 | 16055 | 29865 4 | 6:38.16 | 2:38.42 | 29866 | 41757 5 | 9:16.58 | 0:40.06 | 41758 | 44763 6 | 9:56.64 | 1:32.24 | 44764 | 51687 7 | 11:29.13 | 4:51.18 | 51688 | 73530 8 | 16:20.31 | 2:25.55 | 73531 | 84460 9 | 18:46.11 | 1:22.60 | 84461 | 90670 10 | 20:08.71 | 4:54.18 | 90671 | 112738 11 | 25:03.14 | 2:37.38 | 112739 | 124551 12 | 27:40.52 | 2:46.64 | 124552 | 137065 13 | 30:27.41 | 1:25.66 | 137066 | 143506 14 | 31:53.32 | 1:16.43 | 143507 | 149249 15 | 33:10.00 | 1:45.43 | 149250 | 157167 16 | 34:55.43 | 3:25.69 | 157168 | 172611 17 | 38:21.37 | 1:59.08 | 172612 | 181544 18 | 40:20.45 | 0:33.28 | 181545 | 184047 19 | 40:53.73 | 3:21.20 | 184048 | 199142

Track 1

Filename D:\EAC Rips\Various - Three Billboards Outside Ebbing, Missouri (2017) [FLAC]\01 - Carter Burwell - Mildred Goes To War.wav

Pre-gap length 0:00:02.00

Peak level 94.4 % Extraction speed 2.0 X Track quality 100.0 % Test CRC A176DFA4 Copy CRC A176DFA4 Accurately ripped (confidence 3) [941CA18B] (AR v2) Copy OK

Track 2

Filename D:\EAC Rips\Various - Three Billboards Outside Ebbing, Missouri (2017) [FLAC]\02 - Carter Burwell - The Deer.wav

Pre-gap length 0:00:02.00

Peak level 81.1 % Extraction speed 1.8 X Track quality 99.9 % Test CRC 433355A4 Copy CRC 433355A4 Accurately ripped (confidence 3) [EAB10041] (AR v2) Copy OK

Track 3

Filename D:\EAC Rips\Various - Three Billboards Outside Ebbing, Missouri (2017) [FLAC]\03 - Townes Van Zandt - Buckskin Stallion Blues.wav

Pre-gap length 0:00:03.00

Peak level 99.4 % Extraction speed 2.7 X Track quality 100.0 % Test CRC C6383C14 Copy CRC C6383C14 Accurately ripped (confidence 3) [FDA9D22F] (AR v2) Copy OK

Track 4

Filename D:\EAC Rips\Various - Three Billboards Outside Ebbing, Missouri (2017) [FLAC]\04 - Carter Burwell - A Cough of Blood, A Dark Drive.wav

Pre-gap length 0:00:04.72

Peak level 70.1 % Extraction speed 2.8 X Track quality 100.0 % Test CRC 10C93D4E Copy CRC 10C93D4E Accurately ripped (confidence 3) [8AA9BDAE] (AR v2) Copy OK

Track 5

Filename D:\EAC Rips\Various - Three Billboards Outside Ebbing, Missouri (2017) [FLAC]\05 - Carter Burwell - I've Been Arrested.wav

Pre-gap length 0:00:01.65

Peak level 94.4 % Extraction speed 1.9 X Track quality 100.0 % Test CRC EAD5149D Copy CRC EAD5149D Accurately ripped (confidence 3) [6DDBCD05] (AR v2) Copy OK

Track 6

Filename D:\EAC Rips\Various - Three Billboards Outside Ebbing, Missouri (2017) [FLAC]\06 - Carter Burwell - Fruit Loops.wav

Pre-gap length 0:00:02.00

Peak level 85.3 % Extraction speed 1.8 X Track quality 99.8 % Test CRC 226DCAE9 Copy CRC 226DCAE9 Accurately ripped (confidence 3) [C35EBEBC] (AR v2) Copy OK

Track 7

Filename D:\EAC Rips\Various - Three Billboards Outside Ebbing, Missouri (2017) [FLAC]\07 - Monsters of Folk - His Master's Voice.wav

Pre-gap length 0:00:03.00

Peak level 64.6 % Extraction speed 3.5 X Track quality 100.0 % Test CRC 7B2DC13C Copy CRC 7B2DC13C Accurately ripped (confidence 3) [ABEE53CD] (AR v2) Copy OK

Track 8

Filename D:\EAC Rips\Various - Three Billboards Outside Ebbing, Missouri (2017) [FLAC]\08 - Carter Burwell - Billboards On Fire.wav

Pre-gap length 0:00:01.71

Peak level 94.4 % Extraction speed 2.5 X Track quality 99.9 % Test CRC F9377629 Copy CRC F9377629 Accurately ripped (confidence 3) [F206E4E0] (AR v2) Copy OK

Track 9

Filename D:\EAC Rips\Various - Three Billboards Outside Ebbing, Missouri (2017) [FLAC]\09 - Carter Burwell - Slippers.wav

Pre-gap length 0:00:02.00

Peak level 84.8 % Extraction speed 2.9 X Track quality 100.0 % Test CRC FB92D386 Copy CRC FB92D386 Accurately ripped (confidence 3) [082983C8] (AR v2) Copy OK

Track 10

Filename D:\EAC Rips\Various - Three Billboards Outside Ebbing, Missouri (2017) [FLAC]\10 - Jeffrey Tate - The Last Rose of Summer.wav

Pre-gap length 0:00:03.37

Peak level 99.0 % Extraction speed 3.9 X Track quality 100.0 % Test CRC C79E9BA2 Copy CRC C79E9BA2 Accurately ripped (confidence 3) [6D976555] (AR v2) Copy OK

Track 11

Filename D:\EAC Rips\Various - Three Billboards Outside Ebbing, Missouri (2017) [FLAC]\11 - Carter Burwell - My Dear Anne.wav

Pre-gap length 0:00:03.37

Peak level 94.3 % Extraction speed 3.8 X Track quality 100.0 % Test CRC 1E441E39 Copy CRC 1E441E39 Accurately ripped (confidence 3) [19D2EACD] (AR v2) Copy OK

Track 12

Filename D:\EAC Rips\Various - Three Billboards Outside Ebbing, Missouri (2017) [FLAC]\12 - The Four Tops - Walk Away Renee.wav

Pre-gap length 0:00:03.00

Peak level 76.5 % Extraction speed 3.9 X Track quality 100.0 % Test CRC 74B42A8E Copy CRC 74B42A8E Accurately ripped (confidence 3) [B82550CD] (AR v2) Copy OK

Track 13

Filename D:\EAC Rips\Various - Three Billboards Outside Ebbing, Missouri (2017) [FLAC]\13 - Carter Burwell - Billboards Are Back.wav

Pre-gap length 0:00:03.00

Peak level 60.0 % Extraction speed 3.4 X Track quality 100.0 % Test CRC B296E13E Copy CRC B296E13E Accurately ripped (confidence 3) [B430BEC3] (AR v2) Copy OK

Track 14

Filename D:\EAC Rips\Various - Three Billboards Outside Ebbing, Missouri (2017) [FLAC]\14 - Carter Burwell - Collecting Samples.wav

Pre-gap length 0:00:02.00

Peak level 94.4 % Extraction speed 3.3 X Track quality 100.0 % Test CRC AF9F57EF Copy CRC AF9F57EF Accurately ripped (confidence 3) [37CD0798] (AR v2) Copy OK

Track 15

Filename D:\EAC Rips\Various - Three Billboards Outside Ebbing, Missouri (2017) [FLAC]\15 - Carter Burwell - Sorry Welby.wav

Pre-gap length 0:00:02.00

Peak level 65.9 % Extraction speed 2.6 X Track quality 99.8 % Test CRC 14C69BDF Copy CRC 14C69BDF Accurately ripped (confidence 3) [AC695538] (AR v2) Copy OK

Track 16

Filename D:\EAC Rips\Various - Three Billboards Outside Ebbing, Missouri (2017) [FLAC]\16 - Joan Baez - The Night They Drove Old Dixie Down.wav

Pre-gap length 0:00:03.00

Peak level 94.3 % Extraction speed 4.4 X Track quality 100.0 % Test CRC 437427FF Copy CRC 437427FF Accurately ripped (confidence 3) [492C6370] (AR v2) Copy OK

Track 17

Filename D:\EAC Rips\Various - Three Billboards Outside Ebbing, Missouri (2017) [FLAC]\17 - Carter Burwell - Countermove.wav

Pre-gap length 0:00:03.00

Peak level 87.2 % Extraction speed 4.1 X Track quality 100.0 % Test CRC 70546BD0 Copy CRC 70546BD0 Accurately ripped (confidence 3) [13616430] (AR v2) Copy OK

Track 18

Filename D:\EAC Rips\Various - Three Billboards Outside Ebbing, Missouri (2017) [FLAC]\18 - Carter Burwell - Can't Give Up Hope.wav

Pre-gap length 0:00:03.00

Peak level 74.3 % Extraction speed 2.5 X Track quality 100.0 % Test CRC FE6D449F Copy CRC FE6D449F Accurately ripped (confidence 3) [0A02B8E7] (AR v2) Copy OK

Track 19

Filename D:\EAC Rips\Various - Three Billboards Outside Ebbing, Missouri (2017) [FLAC]\19 - Amy Annelle - Buckskin Stallion Blues.wav

Pre-gap length 0:00:03.00

Peak level 94.4 % Extraction speed 4.6 X Track quality 100.0 % Test CRC 85DF8A5C Copy CRC 85DF8A5C Accurately ripped (confidence 3) [2301A1CA] (AR v2) Copy OK

All tracks accurately ripped

No errors occurred

End of status report

---- CUETools DB Plugin V2.1.6

[CTDB TOCID: I2jyaF917LhpYOjIZQfJfGLD0Tw-] foundSubmit result: I2jyaF917LhpYOjIZQfJfGLD0Tw- has been confirmedTrack | CTDB Status 1 | (10/10) Accurately ripped 2 | (10/10) Accurately ripped 3 | (10/10) Accurately ripped 4 | (10/10) Accurately ripped 5 | (10/10) Accurately ripped 6 | (10/10) Accurately ripped 7 | (10/10) Accurately ripped 8 | (10/10) Accurately ripped 9 | (10/10) Accurately ripped 10 | (10/10) Accurately ripped 11 | (10/10) Accurately ripped 12 | (10/10) Accurately ripped 13 | (10/10) Accurately ripped 14 | (10/10) Accurately ripped 15 | (10/10) Accurately ripped 16 | (10/10) Accurately ripped 17 | (10/10) Accurately ripped 18 | (10/10) Accurately ripped 19 | ( 9/10) Accurately ripped

==== Log checksum 983426193C328770E0701B92B6637168A67307615BE4AE6C1A5E9F8D6F3B1B33 ====
REM GENRE SoundtrackREM DATE 2017REM DISCID 000A5F13REM COMMENT "ExactAudioCopy v1.3"CATALOG 0030206753684PERFORMER "Various Artists"TITLE "Three Billboards Outside Ebbing, Missouri"FILE "01 - Carter Burwell - Mildred Goes To War.wav" WAVE TRACK 01 AUDIO TITLE "Mildred Goes To War" PERFORMER "Carter Burwell" ISRC GB6LT1700515 INDEX 01 00:00:00 TRACK 02 AUDIO TITLE "The Deer" PERFORMER "Carter Burwell" ISRC GB6LT1700516 INDEX 00 01:22:18FILE "02 - Carter Burwell - The Deer.wav" WAVE INDEX 01 00:00:00 TRACK 03 AUDIO TITLE "Buckskin Stallion Blues" PERFORMER "Townes Van Zandt" ISRC USSH58740132 INDEX 00 02:06:62FILE "03 - Townes Van Zandt - Buckskin Stallion Blues.wav" WAVE INDEX 01 00:00:00 TRACK 04 AUDIO TITLE "A Cough of Blood, A Dark Drive" PERFORMER "Carter Burwell" ISRC GB6LT1700517 INDEX 00 02:59:14FILE "04 - Carter Burwell - A Cough of Blood, A Dark Drive.wav" WAVE INDEX 01 00:00:00 TRACK 05 AUDIO TITLE "I've Been Arrested" PERFORMER "Carter Burwell" ISRC GB6LT1700518 INDEX 00 02:36:52FILE "05 - Carter Burwell - I've Been Arrested.wav" WAVE INDEX 01 00:00:00 TRACK 06 AUDIO TITLE "Fruit Loops" PERFORMER "Carter Burwell" ISRC GB6LT1700519 INDEX 00 00:38:06FILE "06 - Carter Burwell - Fruit Loops.wav" WAVE INDEX 01 00:00:00 TRACK 07 AUDIO TITLE "His Master's Voice" PERFORMER "Monsters of Folk" ISRC USM880900090 INDEX 00 01:29:24FILE "07 - Monsters of Folk - His Master's Voice.wav" WAVE INDEX 01 00:00:00 TRACK 08 AUDIO TITLE "Billboards On Fire" PERFORMER "Carter Burwell" ISRC GB6LT1700520 INDEX 00 04:49:22FILE "08 - Carter Burwell - Billboards On Fire.wav" WAVE INDEX 01 00:00:00 TRACK 09 AUDIO TITLE "Slippers" PERFORMER "Carter Burwell" ISRC GB6LT1700521 INDEX 00 02:23:55FILE "09 - Carter Burwell - Slippers.wav" WAVE INDEX 01 00:00:00 TRACK 10 AUDIO TITLE "The Last Rose of Summer" PERFORMER "Jeffrey Tate" ISRC GBF079710180 INDEX 00 01:19:23FILE "10 - Jeffrey Tate - The Last Rose of Summer.wav" WAVE INDEX 01 00:00:00 TRACK 11 AUDIO TITLE "My Dear Anne" PERFORMER "Carter Burwell" ISRC GB6LT1700522 INDEX 00 04:50:56FILE "11 - Carter Burwell - My Dear Anne.wav" WAVE INDEX 01 00:00:00 TRACK 12 AUDIO TITLE "Walk Away Renee" PERFORMER "The Four Tops" ISRC USMO10119987 INDEX 00 02:34:38FILE "12 - The Four Tops - Walk Away Renee.wav" WAVE INDEX 01 00:00:00 TRACK 13 AUDIO TITLE "Billboards Are Back" PERFORMER "Carter Burwell" ISRC GB6LT1700523 INDEX 00 02:43:64FILE "13 - Carter Burwell - Billboards Are Back.wav" WAVE INDEX 01 00:00:00 TRACK 14 AUDIO TITLE "Collecting Samples" PERFORMER "Carter Burwell" ISRC GB6LT1700524 INDEX 00 01:23:66FILE "14 - Carter Burwell - Collecting Samples.wav" WAVE INDEX 01 00:00:00 TRACK 15 AUDIO TITLE "Sorry Welby" PERFORMER "Carter Burwell" ISRC GB6LT1700525 INDEX 00 01:14:43FILE "15 - Carter Burwell - Sorry Welby.wav" WAVE INDEX 01 00:00:00 TRACK 16 AUDIO TITLE "The Night They Drove Old Dixie Down" PERFORMER "Joan Baez" ISRC USVG28907706 INDEX 00 01:42:43FILE "16 - Joan Baez - The Night They Drove Old Dixie Down.wav" WAVE INDEX 01 00:00:00 TRACK 17 AUDIO TITLE "Countermove" PERFORMER "Carter Burwell" ISRC GB6LT1700526 INDEX 00 03:22:69FILE "17 - Carter Burwell - Countermove.wav" WAVE INDEX 01 00:00:00 TRACK 18 AUDIO TITLE "Can't Give Up Hope" PERFORMER "Carter Burwell" ISRC GB6LT1700527 INDEX 00 01:56:08FILE "18 - Carter Burwell - Can't Give Up Hope.wav" WAVE INDEX 01 00:00:00 TRACK 19 AUDIO TITLE "Buckskin Stallion Blues" PERFORMER "Amy Annelle" ISRC USCXG1200240 INDEX 00 00:30:28FILE "19 - Amy Annelle - Buckskin Stallion Blues.wav" WAVE INDEX 01 00:00:00

lossy

RG Soundtracks


Трекер:  [ 08-Мар-2018 08:36 ]

  

Скачать .torrent

Размер .torrent файла 19 KB


Размер: 215 MB
Хэш (hash) релиза: 0e2dfd2cc4bb6dabd3c52cd732778095a5203f3d

Еще никто не оставлял запись к записи скачать торрент . Будь первым!

!Обратная связь