Kuch Rang Pyar Ke Aise Bhi | Payung Teduh | Tomb Raider

Скачать через торрент Адский разрыв насмерть Mortal Break-up Inferno Фильм бесплатно в хорошем качестве torrent

Скачивайте на UnionPeer.org фильмы через торрент без регистрации. Новинки кино в хорошем качестве через торрент. На UnionPeer.org можно скачать через торрент фильмы 2014 и 2015 годов. Самые новые фильмы.

Скачать торрент Адский разрыв насмерть Mortal Break-up Inferno бесплатно через .torrent фильм мультфильм сериал

Статистика раздачи
Размер:  50 MB   |    Зарегистрирован:  3 месяца 10 дней   |    .torrent скачан:  28 раз   |   
Раздают:  1  
   
загрузка...
 
Автор Сообщение

Galfimbul

avatar Galfimbul


Адский разрыв насмерть / Mortal Break-up Inferno

Страна: Франция
Жанр: мультфильм
Продолжительность: 00:03:15
Год выпуска: 2014
Перевод: субтитры (alex.n42)
Русские субтитры: есть

Режиссёры: Пола Ассадориан, Марлен Бьюб, Дебора Крачон, Максим Делаланд, Тибо Гараль, Батист Перрон / Paula Assadourian, Marlène Beaube, Débora Cruchon, Maxime Delalande, Thibaud Gayral, Batiste Perron

Описание: Один молодой человек решает однажды расстаться со своей девушкой, и незаметно уходит, оставив прощальное письмо. Однако это ему не совсем удаётся: оскорблённая в своих чувствах девушка способна на многое...

Качество: WEBRip
Формат: AVI
Видео: 1954 kbps, 720х304 (2.35:1), 25.000 fps, MPEG-4 Visual (XviD)
Аудио: 192 kbps, 44.1 kHz, 2 channels, MPEG Audio (MP3)
Субтитры: softsub (SRT)
GeneralComplete name : Mortal Break-Up Inferno (2014).aviFormat : AVIFormat/Info : Audio Video InterleaveFile size : 50.4 MiBDuration : 3mn 15sOverall bit rate : 2 156 KbpsWriting library : VirtualDub build 35491/release

VideoID : 0Format : MPEG-4 VisualFormat profile : Advanced [email protected] settings, BVOP : 2Format settings, QPel : NoFormat settings, GMC : No warppointsFormat settings, Matrix : Default (H.263)Codec ID : XVIDCodec ID/Hint : XviDDuration : 3mn 15sBit rate : 1 954 KbpsWidth : 720 pixelsHeight : 304 pixelsDisplay aspect ratio : 2.35:1Frame rate : 25.000 fpsColor space : YUVChroma subsampling : 4:2:0Bit depth : 8 bitsScan type : ProgressiveCompression mode : LossyBits/(Pixel*Frame) : 0.357Stream size : 45.6 MiB (91%)Writing library : XviD 64

AudioID : 1Format : MPEG AudioFormat version : Version 1Format profile : Layer 3Mode : Joint stereoCodec ID : 55Codec ID/Hint : MP3Duration : 3mn 15sBit rate mode : ConstantBit rate : 192 KbpsChannel(s) : 2 channelsSampling rate : 44.1 KHzCompression mode : LossyStream size : 4.48 MiB (9%)Alignment : Split accross interleavesInterleave, duration : 40 ms (1.00 video frame)Interleave, preload duration : 500 ms


Трекер:  [ 08-Мар-2018 06:06 ]

  

Скачать .torrent

Размер .torrent файла 16 KB


Размер: 50 MB
Хэш (hash) релиза: b80997e4f3c18caf3e41324459c484f067e2146d
Подписка на обновления:

Еще никто не оставлял запись к записи скачать торрент Адский разрыв насмерть Mortal Break-up Inferno . Будь первым!

!Обратная связь