voir épisode 4 | Enter Giveaway | 01.05.1619:23 Uhr Christian Anders - Alle Optionen Offen - Hope12 Pop256 kbit/s 0 / 06.024 Hits VID P2P DDL 0 Kommentare

Скачать через торрент Высокие ставки: Реванш Сезон: 2 Фильм бесплатно в хорошем качестве torrent

Скачивайте на UnionPeer.org фильмы через торрент без регистрации. Новинки кино в хорошем качестве через торрент. На UnionPeer.org можно скачать через торрент фильмы 2014 и 2015 годов. Самые новые фильмы.

Скачать торрент Высокие ставки: Реванш Сезон: 2 бесплатно через .torrent фильм мультфильм сериал

Статистика раздачи
Размер:  4.7 GB   |    Зарегистрирован:  3 месяца 12 дней   |    .torrent скачан:  170 раз   |   
Раздают:  1  
   
загрузка...
 
Автор Сообщение

Galfimbul

avatar Galfimbul


Высокие ставки: Реванш
Год выпуска: 2017
Производство: Триикс Медиа
Жанр: драма, криминал
Продолжительность: 00:48:04
Субтитры: нет
Режиссёр: Максим Бриус
В ролях: Алексей Нилов, Лукерия Ильяшенко, Максим Дахненко, Роман Павлушев, Валентин Кузнецов, Екатерина Кашина, Александр Дергапутский, Нина Петровская, Мария Жиганова, Екатерина Полякова и др.
Описание: В современном мире подпольного казино происходят серьезные перемены. На первый план выходят азартные онлайн-игры, привлекая наибольший ажиотаж и наибольшие ставки. Бандит старой закалки Юрий Сергеев сталкивается с молодой и расчетливой конкуренткой Глорией, которая намерена построить свою преступную бизнес-империю...
В современном мире подпольного казино происходят серьезные перемены. На первый план выходят азартные онлайн-игры, привлекая наибольший ажиотаж и наибольшие ставки. Бандит старой закалки Юрий Сергеев сталкивается с молодой и расчетливой конкуренткой Глорией, которая намерена построить свою преступную бизнес-империю...
Сэмпл: http://multi-up.com/1189859
Релиз от: Алехаndr
Качество: WEBRip
Формат: AVI
Видео кодек: XviD
Аудио кодек: AC3
Видео: 720x400 (16:9), 25.000 fps, XviD, 1543 Kbps, 0.21 bits/pixel
Аудио: 48 kHz, AC3 Dolby Digital, 2 ch, 192 Kbps

Реклама: Нет
General
Complete name : Downloads\Высокие ставки. Реванш (2017).by.Алехаndr\Серия 01.by.Алехаndr.avi
Format : AVI
Format/Info : Audio Video Interleave
File size : 601 MiB
Duration : 48mn 4s
Overall bit rate : 1 747 Kbps
Video #0
ID : 0
Format : MPEG-4 Visual
Format settings, BVOP : No
Format settings, QPel : No
Format settings, GMC : No warppoints
Format settings, Matrix : Default (H.263)
Codec ID : FMP4
Duration : 48mn 4s
Bit rate : 1 543 Kbps
Width : 720 pixels
Height : 400 pixels
Display aspect ratio : 16:9
Frame rate : 25.000 fps
Color space : YUV
Chroma subsampling : 4:2:0
Bit depth : 8 bits
Scan type : Progressive
Compression mode : Lossy
Bits/(Pixel*Frame) : 0.214
Stream size : 531 MiB (88%)
Writing library : Lavc57.89.100
Audio #1
ID : 1
Format : AC-3
Format/Info : Audio Coding 3
Mode extension : CM (complete main)
Format settings, Endianness : Big
Codec ID : 2000
Duration : 48mn 4s
Bit rate mode : Constant
Bit rate : 192 Kbps
Channel(s) : 2 channels
Channel positions : Front: L R
Sampling rate : 48.0 KHz
Bit depth : 16 bits
Compression mode : Lossy
Stream size : 66.0 MiB (11%)
Alignment : Aligned on interleaves
Interleave, duration : 32 ms (0.80 video frame)
Предыдущие и альтернативные раздачи

Трекер:  [ 07-Мар-2018 21:48 ]

  

Скачать .torrent

Размер .torrent файла 24 KB


Размер: 4.7 GB
Хэш (hash) релиза: 23cfb20a84a5a7ae55e1c659d2cf3bd3a8afc289
Подписка на обновления:

Еще никто не оставлял запись к записи скачать торрент Высокие ставки: Реванш Сезон: 2 . Будь первым!

!Обратная связь