Cash Cash - Finest Hour (feat. Abir)
Claudia Marasca

Скачать через торрент музыку Леди Бёрд Lady Bird бесплатно без регистрации torrent

Статистика раздачи
Размер:  177 MB   |    Зарегистрирован:  1 месяц 11 дней   |    .torrent скачан:  23 раза   |   
Раздают:  1  
   
загрузка...
 
Автор Сообщение

Galfimbul

avatar Galfimbul


Леди Бёрд / Lady Bird

Название альбома: Lady Bird
Жанр: Score
Композитор: Jon Brion
Год выпуска диска: 2018
Год выпуска фильма: 2017
Производитель диска: US
Издатель (лейбл): Lakeshore Records
Номер по каталогу: LKS35130
Аудиокодек: FLAC
Тип рипа: tracks+.cue
Битрейт аудио: lossless
Продолжительность: 00:27:56
Источник: Спасибо, Filex
ID3-теги: да
Наличие сканов в содержимом раздачи: да
01. Jon Brion - Title Credits (1:49)
02. Jon Brion - Sign Up (0:51)
03. Jon Brion - Drive Home (0:44)
04. Jon Brion - LB / Danny (0:18)
05. Jon Brion - Pick Up (0:33)
06. Jon Brion - Lady Bird Kiss (1:47)
07. Jon Brion - Rose Garden (1:44)
08. Jon Brion - LB Steals Math Grade Book (0:26)
09. Jon Brion - Thanksgiving in Sacramento (0:53)
10. Jon Brion - Coffee Shop (0:36)
11. Jon Brion - Hope (0:50)
12. Jon Brion - More Hope (1:43)
13. Jon Brion - Consolation (1:20)
14. Jon Brion - Hope Against Hope (1:11)
15. Jon Brion - Model Homes (0:47)
16. Jon Brion - Maybe (0:37)
17. Jon Brion - Looking Forward (0:27)
18. Jon Brion - Summer in Sacramento (1:20)
19. Jon Brion - Packing Up (1:18)
20. Jon Brion - Leaving (1:24)
21. Jon Brion - Hope? (0:42)
22. Jon Brion - Reconcile (1:26)
23. Jon Brion - Lady Bird (5:10)[/pre]
Exact Audio Copy V1.3 from 2. September 2016

EAC extraction logfile from 7. March 2018, 11:45

Jon Brion / Lady Bird

Used drive : PLEXTOR CD-R PX-230A Adapter: 1 ID: 0

Read mode : SecureUtilize accurate stream : YesDefeat audio cache : YesMake use of C2 pointers : No

Read offset correction : 738Overread into Lead-In and Lead-Out : NoFill up missing offset samples with silence : YesDelete leading and trailing silent blocks : NoNull samples used in CRC calculations : YesUsed interface : Native Win32 interface for Win NT & 2000Gap handling : Appended to previous track

Used output format : User Defined EncoderSelected bitrate : 1024 kBit/sQuality : HighAdd ID3 tag : NoCommand line compressor : C:\Program Files\Exact Audio Copy\Flac\flac.exeAdditional command line options : -6 -V -T "ARTIST=%artist%" -T "TITLE=%title%" -T "ALBUM=%albumtitle%" -T "DATE=%year%" -T "TRACKNUMBER=%tracknr%" -T "GENRE=%genre%" -T "COMMENT=%comment%" -T "ALBUMARTIST=%albuminterpret%" -T "COMPOSER=%composer%" -T "DISCNUMBER=%cdnumber%" -T "TOTALDISCS=%totalcds%" -T "TOTALTRACKS=%numtracks%" %source% -o %dest%

TOC of the extracted CD

Track | Start | Length | Start sector | End sector --------------------------------------------------------- 1 | 0:00.00 | 1:49.34 | 0 | 8208 2 | 1:49.34 | 0:50.45 | 8209 | 12003 3 | 2:40.04 | 0:44.15 | 12004 | 15318 4 | 3:24.19 | 0:18.17 | 15319 | 16685 5 | 3:42.36 | 0:32.70 | 16686 | 19155 6 | 4:15.31 | 1:46.71 | 19156 | 27176 7 | 6:02.27 | 1:44.31 | 27177 | 35007 8 | 7:46.58 | 0:25.71 | 35008 | 36953 9 | 8:12.54 | 0:52.56 | 36954 | 40909 10 | 9:05.35 | 0:35.70 | 40910 | 43604 11 | 9:41.30 | 0:50.37 | 43605 | 47391 12 | 10:31.67 | 1:42.62 | 47392 | 55103 13 | 12:14.54 | 1:19.50 | 55104 | 61078 14 | 13:34.29 | 1:11.28 | 61079 | 66431 15 | 14:45.57 | 0:47.07 | 66432 | 69963 16 | 15:32.64 | 0:36.58 | 69964 | 72721 17 | 16:09.47 | 0:27.24 | 72722 | 74770 18 | 16:36.71 | 1:19.56 | 74771 | 80751 19 | 17:56.52 | 1:18.01 | 80752 | 86602 20 | 19:14.53 | 1:24.08 | 86603 | 92910 21 | 20:38.61 | 0:42.21 | 92911 | 96081 22 | 21:21.07 | 1:25.71 | 96082 | 102527 23 | 22:47.03 | 5:10.20 | 102528 | 125797

Track 1

Filename C:\Ripped by Filex\01 - Title Credits.wav

Pre-gap length 0:00:02.00

Peak level 94.8 % Extraction speed 3.9 X Track quality 100.0 % Test CRC 6E1E8A52 Copy CRC 6E1E8A52 Track not present in AccurateRip database Copy OK

Track 2

Filename C:\Ripped by Filex\02 - Sign Up.wav

Pre-gap length 0:00:01.38

Peak level 94.3 % Extraction speed 3.6 X Track quality 100.0 % Test CRC EEDB9D3A Copy CRC EEDB9D3A Track not present in AccurateRip database Copy OK

Track 3

Filename C:\Ripped by Filex\03 - Drive Home.wav

Pre-gap length 0:00:01.38

Peak level 94.4 % Extraction speed 3.4 X Track quality 100.0 % Test CRC 0E03A970 Copy CRC 0E03A970 Track not present in AccurateRip database Copy OK

Track 4

Filename C:\Ripped by Filex\04 - LB , Danny.wav

Pre-gap length 0:00:01.38

Peak level 64.7 % Extraction speed 1.2 X Track quality 99.4 % Test CRC 5651F501 Copy CRC 5651F501 Track not present in AccurateRip database Copy OK

Track 5

Filename C:\Ripped by Filex\05 - Pick Up.wav

Pre-gap length 0:00:01.38

Peak level 94.6 % Extraction speed 2.9 X Track quality 100.0 % Test CRC 651F9653 Copy CRC 651F9653 Track not present in AccurateRip database Copy OK

Track 6

Filename C:\Ripped by Filex\06 - Lady Bird Kiss.wav

Pre-gap length 0:00:01.38

Peak level 97.0 % Extraction speed 4.6 X Track quality 100.0 % Test CRC 97AF05F6 Copy CRC 97AF05F6 Track not present in AccurateRip database Copy OK

Track 7

Filename C:\Ripped by Filex\07 - Rose Garden.wav

Pre-gap length 0:00:01.38

Peak level 97.2 % Extraction speed 4.6 X Track quality 100.0 % Test CRC D4321F19 Copy CRC D4321F19 Track not present in AccurateRip database Copy OK

Track 8

Filename C:\Ripped by Filex\08 - LB Steals Math Grade Book.wav

Pre-gap length 0:00:01.38

Peak level 98.0 % Extraction speed 2.5 X Track quality 100.0 % Test CRC 3AEAFFB7 Copy CRC 3AEAFFB7 Track not present in AccurateRip database Copy OK

Track 9

Filename C:\Ripped by Filex\09 - Thanksgiving in Sacramento.wav

Pre-gap length 0:00:01.38

Peak level 100.0 % Extraction speed 3.7 X Track quality 100.0 % Test CRC 9D4AE220 Copy CRC 9D4AE220 Track not present in AccurateRip database Copy OK

Track 10

Filename C:\Ripped by Filex\10 - Coffee Shop.wav

Pre-gap length 0:00:01.38

Peak level 94.6 % Extraction speed 3.0 X Track quality 100.0 % Test CRC A80F83B5 Copy CRC A80F83B5 Track not present in AccurateRip database Copy OK

Track 11

Filename C:\Ripped by Filex\11 - Hope.wav

Pre-gap length 0:00:01.38

Peak level 93.3 % Extraction speed 3.4 X Track quality 100.0 % Test CRC 325790DF Copy CRC 325790DF Track not present in AccurateRip database Copy OK

Track 12

Filename C:\Ripped by Filex\12 - More Hope.wav

Pre-gap length 0:00:01.37

Peak level 94.4 % Extraction speed 3.7 X Track quality 100.0 % Test CRC EC341728 Copy CRC EC341728 Track not present in AccurateRip database Copy OK

Track 13

Filename C:\Ripped by Filex\13 - Consolation.wav

Pre-gap length 0:00:01.38

Peak level 100.0 % Extraction speed 3.2 X Track quality 99.8 % Test CRC 82311411 Copy CRC 82311411 Track not present in AccurateRip database Copy OK

Track 14

Filename C:\Ripped by Filex\14 - Hope Against Hope.wav

Pre-gap length 0:00:01.38

Peak level 95.0 % Extraction speed 3.0 X Track quality 99.8 % Test CRC 5372B29C Copy CRC 5372B29C Track not present in AccurateRip database Copy OK

Track 15

Filename C:\Ripped by Filex\15 - Model Homes.wav

Pre-gap length 0:00:01.38

Peak level 94.4 % Extraction speed 2.4 X Track quality 99.7 % Test CRC 3537B538 Copy CRC 3537B538 Track not present in AccurateRip database Copy OK

Track 16

Filename C:\Ripped by Filex\16 - Maybe.wav

Pre-gap length 0:00:01.38

Peak level 94.7 % Extraction speed 3.0 X Track quality 100.0 % Test CRC E495DF69 Copy CRC E495DF69 Track not present in AccurateRip database Copy OK

Track 17

Filename C:\Ripped by Filex\17 - Looking Forward.wav

Pre-gap length 0:00:01.38

Peak level 59.3 % Extraction speed 2.5 X Track quality 100.0 % Test CRC BAEF8655 Copy CRC BAEF8655 Track not present in AccurateRip database Copy OK

Track 18

Filename C:\Ripped by Filex\18 - Summer in Sacramento.wav

Pre-gap length 0:00:01.38

Peak level 94.3 % Extraction speed 4.1 X Track quality 100.0 % Test CRC EB49CC97 Copy CRC EB49CC97 Track not present in AccurateRip database Copy OK

Track 19

Filename C:\Ripped by Filex\19 - Packing Up.wav

Pre-gap length 0:00:01.38

Peak level 98.8 % Extraction speed 3.1 X Track quality 99.8 % Test CRC 52E56F9F Copy CRC 52E56F9F Track not present in AccurateRip database Copy OK

Track 20

Filename C:\Ripped by Filex\20 - Leaving.wav

Pre-gap length 0:00:01.38

Peak level 98.8 % Extraction speed 4.2 X Track quality 100.0 % Test CRC 9FEF7F70 Copy CRC 9FEF7F70 Track not present in AccurateRip database Copy OK

Track 21

Filename C:\Ripped by Filex\21 - Hope.wav

Pre-gap length 0:00:01.38

Peak level 97.4 % Extraction speed 3.2 X Track quality 100.0 % Test CRC D3974960 Copy CRC D3974960 Track not present in AccurateRip database Copy OK

Track 22

Filename C:\Ripped by Filex\22 - Reconcile.wav

Pre-gap length 0:00:01.38

Peak level 87.5 % Extraction speed 4.3 X Track quality 100.0 % Test CRC EDF6480C Copy CRC EDF6480C Track not present in AccurateRip database Copy OK

Track 23

Filename C:\Ripped by Filex\23 - Lady Bird.wav

Pre-gap length 0:00:01.38

Peak level 98.0 % Extraction speed 4.9 X Track quality 100.0 % Test CRC 736BDAA8 Copy CRC 736BDAA8 Track not present in AccurateRip database Copy OK

None of the tracks are present in the AccurateRip database

No errors occurred

End of status report

---- CUETools DB Plugin V2.1.6

[CTDB TOCID: yGuUVXNTE_rF2i66v0aWREa1i2o-] disk not present in databaseSubmit result: yGuUVXNTE_rF2i66v0aWREa1i2o- has been uploaded

==== Log checksum AF96A7D46FBDCDA136DAEE839768630E2BACD42C2FA7F7D147F7B4E509F058CF ====
REM GENRE SoundtrackREM DATE 2017REM DISCID 3F068D17REM COMMENT "ExactAudioCopy v1.3"PERFORMER "Jon Brion"TITLE "Lady Bird"REM COMPOSER "Jon Brion"FILE "01 - Title Credits.wav" WAVE TRACK 01 AUDIO TITLE "Title Credits" PERFORMER "Jon Brion" REM COMPOSER "Jon Brion" INDEX 01 00:00:00 TRACK 02 AUDIO TITLE "Sign Up" PERFORMER "Jon Brion" REM COMPOSER "Jon Brion" INDEX 00 01:47:71FILE "02 - Sign Up.wav" WAVE INDEX 01 00:00:00 TRACK 03 AUDIO TITLE "Drive Home" PERFORMER "Jon Brion" REM COMPOSER "Jon Brion" INDEX 00 00:49:07FILE "03 - Drive Home.wav" WAVE INDEX 01 00:00:00 TRACK 04 AUDIO TITLE "LB / Danny" PERFORMER "Jon Brion" REM COMPOSER "Jon Brion" INDEX 00 00:42:52FILE "04 - LB - Danny.wav" WAVE INDEX 01 00:00:00 TRACK 05 AUDIO TITLE "Pick Up" PERFORMER "Jon Brion" REM COMPOSER "Jon Brion" INDEX 00 00:16:54FILE "05 - Pick Up.wav" WAVE INDEX 01 00:00:00 TRACK 06 AUDIO TITLE "Lady Bird Kiss" PERFORMER "Jon Brion" REM COMPOSER "Jon Brion" INDEX 00 00:31:32FILE "06 - Lady Bird Kiss.wav" WAVE INDEX 01 00:00:00 TRACK 07 AUDIO TITLE "Rose Garden" PERFORMER "Jon Brion" REM COMPOSER "Jon Brion" INDEX 00 01:45:33FILE "07 - Rose Garden.wav" WAVE INDEX 01 00:00:00 TRACK 08 AUDIO TITLE "LB Steals Math Grade Book" PERFORMER "Jon Brion" REM COMPOSER "Jon Brion" INDEX 00 01:42:68FILE "08 - LB Steals Math Grade Book.wav" WAVE INDEX 01 00:00:00 TRACK 09 AUDIO TITLE "Thanksgiving in Sacramento" PERFORMER "Jon Brion" REM COMPOSER "Jon Brion" INDEX 00 00:24:33FILE "09 - Thanksgiving in Sacramento.wav" WAVE INDEX 01 00:00:00 TRACK 10 AUDIO TITLE "Coffee Shop" PERFORMER "Jon Brion" REM COMPOSER "Jon Brion" INDEX 00 00:51:18FILE "10 - Coffee Shop.wav" WAVE INDEX 01 00:00:00 TRACK 11 AUDIO TITLE "Hope" PERFORMER "Jon Brion" REM COMPOSER "Jon Brion" INDEX 00 00:34:32FILE "11 - Hope.wav" WAVE INDEX 01 00:00:00 TRACK 12 AUDIO TITLE "More Hope" PERFORMER "Jon Brion" REM COMPOSER "Jon Brion" INDEX 00 00:49:00FILE "12 - More Hope.wav" WAVE INDEX 01 00:00:00 TRACK 13 AUDIO TITLE "Consolation" PERFORMER "Jon Brion" REM COMPOSER "Jon Brion" INDEX 00 01:41:24FILE "13 - Consolation.wav" WAVE INDEX 01 00:00:00 TRACK 14 AUDIO TITLE "Hope Against Hope" PERFORMER "Jon Brion" REM COMPOSER "Jon Brion" INDEX 00 01:18:12FILE "14 - Hope Against Hope.wav" WAVE INDEX 01 00:00:00 TRACK 15 AUDIO TITLE "Model Homes" PERFORMER "Jon Brion" REM COMPOSER "Jon Brion" INDEX 00 01:09:65FILE "15 - Model Homes.wav" WAVE INDEX 01 00:00:00 TRACK 16 AUDIO TITLE "Maybe" PERFORMER "Jon Brion" REM COMPOSER "Jon Brion" INDEX 00 00:45:44FILE "16 - Maybe.wav" WAVE INDEX 01 00:00:00 TRACK 17 AUDIO TITLE "Looking Forward" PERFORMER "Jon Brion" REM COMPOSER "Jon Brion" INDEX 00 00:35:20FILE "17 - Looking Forward.wav" WAVE INDEX 01 00:00:00 TRACK 18 AUDIO TITLE "Summer in Sacramento" PERFORMER "Jon Brion" REM COMPOSER "Jon Brion" INDEX 00 00:25:61FILE "18 - Summer in Sacramento.wav" WAVE INDEX 01 00:00:00 TRACK 19 AUDIO TITLE "Packing Up" PERFORMER "Jon Brion" REM COMPOSER "Jon Brion" INDEX 00 01:18:18FILE "19 - Packing Up.wav" WAVE INDEX 01 00:00:00 TRACK 20 AUDIO TITLE "Leaving" PERFORMER "Jon Brion" REM COMPOSER "Jon Brion" INDEX 00 01:16:38FILE "20 - Leaving.wav" WAVE INDEX 01 00:00:00 TRACK 21 AUDIO TITLE "Hope?" PERFORMER "Jon Brion" REM COMPOSER "Jon Brion" INDEX 00 01:22:45FILE "21 - Hope.wav" WAVE INDEX 01 00:00:00 TRACK 22 AUDIO TITLE "Reconcile" PERFORMER "Jon Brion" REM COMPOSER "Jon Brion" INDEX 00 00:40:58FILE "22 - Reconcile.wav" WAVE INDEX 01 00:00:00 TRACK 23 AUDIO TITLE "Lady Bird" PERFORMER "Jon Brion" REM COMPOSER "Jon Brion" INDEX 00 01:24:33FILE "23 - Lady Bird.wav" WAVE INDEX 01 00:00:00


RG Soundtracks


Трекер:  [ 07-Мар-2018 21:36 ]

  

Скачать .torrent

Размер .torrent файла 16 KB


Размер: 177 MB
Хэш (hash) релиза: 61c501b4dc0c730ba69cfd4b2512e849d2e25226

Торренты, похожие на Леди Бёрд Lady Bird скачать торрент

Форум Название Автор Размер S L Добавлен
Саундтреки к фильмам и мультфильмам (mp3) ·· (Soundtrack) Леди Бёрд / Lady Bird (by Various artists) - 2018, MP3, 320 kbps Galfimbul 172050852164 MB 0 0 1523718382

18:06

14-Апр-18

Саундтреки к фильмам и мультфильмам (mp3) ·· (Score) Леди Бёрд / Lady Bird (by Jon Brion) - 2018, MP3, 320 kbps Galfimbul 118622803113 MB 0 0 1523718374

18:06

14-Апр-18

Саундтреки к фильмам и мультфильмам (lossless) ·· (Soundtrack) Леди Бёрд / Lady Bird (by VA) - 2018 (2017), FLAC (tracks+.cue), lossless Galfimbul 377172626360 MB 0 0 1520489499

09:11

8-Мар-18

Еще никто не оставлял запись к записи скачать торрент Леди Бёрд Lady Bird . Будь первым!

!Обратная связь