Скачать "Миссия: невыполнима 4 / Mission: Impossible - Ghost Protocol (2011) " на большой скорости | J-MELO S06E17 J-Melo In Saitama Part Two 1080p HEVC x265-MeGusta 1 hour | Liteul Poreseuteu

Скачать через торрент Сегодня и начну! Kyou Kara Ore Wa!! бесплатно Аниме Все серии на русском torrent

Статистика раздачи
Размер:  7.2 GB   |    Зарегистрирован:  4 месяца 13 дней   |    .torrent скачан:  28 раз   |   
Раздают:  1  
   
загрузка...
 
Автор Сообщение

Galfimbul

avatar Galfimbul


Сегодня и начну! / Kyou Kara Ore Wa!! / From Today I'll
今日から俺は!!
Страна: Япония

Выпуск: c 01.04.1993 по 21.12.1997

Жанры: комедия, школа, сёнэн

Тип/Продолжительность: OVA, 10 эп. от 37 до 60 мин.

Режиссёр: Мори Такэси

Снято по манге: Kyou Kara Ore Wa!!

Автор оригинала: Нисинори Хироюки

Студия:
Описание:
Скука, одинаковость будней, желание как можно лучше социализироваться заставляют двух самых обычных на вид старшеклассников за день до перехода в новую школу: одного – вызывающе по тем временам обесцветиться, второго – заказать себе в парикмахерской невероятный взрыв на макаронной фабрике в качестве причёски. Очевидно, они пришли в новую школу не для того, чтоб отсиживать со скукой уроки за спинами таких же, как они, и не проделывать один и тот же извечный путь дом-школа. Чтобы поменять что-то, нужно начать хотя бы с вызывающих причёсок, а приключения, они же проблемы в виде местной шпаны, сами подтянутся.

Смешная пара – благородный и беспринципный, человек слова и ловкач, каких поискать. Их объединило одно – с сегодняшнего дня я, даже я на самом деле трусоват или слаб, буду поступать так, как мне хочется, а способы для этого найдутся. «С сегодняшнего я больше не буду одним из!» – вот, что хотят сказать нам главные герои.
Информационные ссылки: World Art || AniDB || MAL
Субтитры:

русские, софтсаб, внешними файлами, от Maria & Zero (1-6) & Ethnica (7, 8) & Nicolai8 (9, 10)

Озвучка:

одноголосая (муж.), внешними файлами, от Henesy (ARRU) [1-8]
Энкод: mottoj

Качество: DVDRip | Тип видео: без хардсаба | Формат: MKV

Видео: 696x568 (@757x568), 23.976 f/s, H.264 (8 bits), 1 933 Kb/s

Аудио JAP: 48.0 KHz, AC3, 2 channels, 192 Kb/s
Аудио RUS: 48.0 KHz, AC3, 2 channels, 192 Kb/s
Общее
Уникальный идентификатор         : 222813157970901093144396266014555454118 (0xA7A040D7DF8C7CB2B85FD63137833AA6)
Полное имя                       : ***\Сегодня и начну! [Kyou Kara Ore Wa!!]\Kyou kara ore wa!! - 01 (DVDRip 696x568 x264 AC3).mkv
Формат                           : Matroska
Размер файла                     : 928 Мбайт
Продолжительность                : 1 ч. 0 м.
Общий поток                      : 2127 Кбит/сек
Дата кодирования                 : UTC 2013-09-03 06:45:22
Программа кодирования            : mkvmerge v6.2.0 ('Promised Land') built on Apr 28 2013 12:22:01
Библиотека кодирования           : libebml v1.3.0 + libmatroska v1.4.0

Видео
Идентификатор                    : 1
Формат                           : AVC
Формат/Информация                : Advanced Video Codec
Профиль формата                  : [email protected]
Параметр CABAC формата           : Да
Параметр ReFrames формата        : 5 кадры
Параметры GOP формата            : M=2, N=29
Идентификатор кодека             : V_MPEG4/ISO/AVC
Продолжительность                : 1 ч. 0 м.
Битрейт                          : 1893 Кбит/сек
Ширина                           : 696 пикс.
Высота                           : 568 пикс.
Соотношение сторон               : 4:3
Частота кадров                   : 23,976 кадр/сек
Цветовое пространство            : YUV
Подвыборка цветности             : 4:2:0
Битовая глубина                  : 8 бит
Тип развёртки                    : Прогрессивная
Бит/(Пиксели*Кадры)              : 0.200
Размер потока                    : 826 Мбайт (89%)
Библиотека кодирования           : x264 core 133 r2334 a3ac64b
Настройки программы              : cabac=1 / ref=5 / deblock=1:-1:-1 / analyse=0x3:0x113 / me=umh / subme=11 / psy=1 / psy_rd=0.90:0.00 / mixed_ref=1 / me_range=32 / chroma_me=1 / trellis=2 / 8x8dct=1 / cqm=0 / deadzone=21,11 / fast_pskip=0 / chroma_qp_offset=-2 / threads=12 / lookahead_threads=1 / sliced_threads=0 / nr=0 / decimate=1 / interlaced=0 / bluray_compat=0 / constrained_intra=0 / bframes=3 / b_pyramid=0 / b_adapt=2 / b_bias=1 / direct=3 / weightb=1 / open_gop=0 / weightp=2 / keyint=240 / keyint_min=23 / scenecut=40 / intra_refresh=0 / rc_lookahead=50 / rc=crf / mbtree=1 / crf=17.0 / qcomp=0.70 / qpmin=10 / qpmax=51 / qpstep=4 / vbv_maxrate=62500 / vbv_bufsize=78125 / crf_max=0.0 / nal_hrd=none / ip_ratio=1.40 / aq=1:1.10
Язык                             : Japanese
Основные цвета                   : BT.470-6 System B, BT.470-6 System G, BT.601-6 625, BT.1358 625, BT.1700 625 PAL, BT.1700 625 SECAM
Характеристики трансфера         : BT.470-6 System B, BT.470-6 System G
Коэффициенты матрицы             : BT.470-6 System B, BT.470-6 System G, BT.601-6 625, BT.1358 625, BT.1700 625 PAL, BT.1700 625 SECAM, IEC 61966-2-4 601

Аудио
Идентификатор                    : 2
Формат                           : AC-3
Формат/Информация                : Audio Coding 3
Расширение режима                : CM (complete main)
Идентификатор кодека             : A_AC3
Продолжительность                : 1 ч. 0 м.
Вид битрейта                     : Постоянный
Битрейт                          : 192 Кбит/сек
Канал(ы)                         : 2 канала(ов)
Расположение каналов             : Front: L R
Частота                          : 48,0 КГц
Битовая глубина                  : 16 бит
Метод сжатия                     : С потерями
Размер потока                    : 83,8 Мбайт (9%)
Язык                             : Japanese
01. The new beginning!!
02. The Crimson Coward Against the Sunset
03. The Most Selfish Man in Japan
04. And Yet, You`re Going to Kyoto
05. Unknown, Broke and Underhanded
06. Counterstrike: Lullaby
07. Operation: Best Buds - Go! Go! Go!
08. Bombing on a Dojo Challenge!!
09. Once Upon a Time in Chiba
10. On the Run from the Yakuza
От этой и этой - выше качество видео (сравнение).


Трекер:  [ 07-Мар-2018 20:30 ]

  

Скачать .torrent

Размер .torrent файла 40 KB


Размер: 7.2 GB
Хэш (hash) релиза: f65b195c7fd45dc8d748e983e07b1be5239bc974
Подписка на обновления:

Еще никто не оставлял запись к записи скачать торрент Сегодня и начну! Kyou Kara Ore Wa!! . Будь первым!

!Обратная связь