Home season 06 episode 02
The Big Bang Theory S11E18 720p HDTV x264-AVS[rarbg]

Скачать через торрент Нет игры — нет жизни: Начало No Game No Life: Zero бесплатно Аниме Все серии на русском torrent

Статистика раздачи
Размер:  263 MB   |    Зарегистрирован:  1 месяц 15 дней   |    .torrent скачан:  16 раз   |   
Раздают:  1  
   
загрузка...
 
Автор Сообщение

Galfimbul

avatar Galfimbul


Нет игры — нет жизни: Начало / No Game No Life: Zero

Страна: Япония
Год выпуска: 2017
Жанр: приключения
Тип: Special
Продолжительность: 3 мин
Режиссер: Исидзука Ацуко
Студия: Madhouse

Описание: Эта история происходит за шесть тысяч лет до того, как Сора и Сиро появились в истории Дисборда.
Война уничтожила землю, разрывая небеса, разрушая звёзды и даже угрожая уничтожить всё человечество. Среди хаоса и разрушения молодой человек по имени Рику ведёт человечество к завтрашнему дню по велению своего сердца. В один прекрасный день, в руинах города эльфов, он встречает Шуви, девушку-изгнанницу Экс-Машин, которая просит научить её, что значит иметь человеческое сердце.
© SpaKer

Качество: BDRip
Тип релиза: Без хардсаба
Формат видео: MKV
Релиз/Автор рипа: Jensen [Beatrice-Raws]
Видео: MPEG4(х264); 10 bit; 1920x1080; 9500 Кбит/сек; 23.976 кадра/сек
Аудио: AAC, 48 kHz, 2 ch, 192 Кбит/сек; Язык Русский (в составе контейнера); Язык Русский (в составе контейнера) ; Озвучка: Алла Гришина(ж) & Игорь Хрусталёв(м) (двухголосая)
Аудио 2: FLAC; 48kHz; 2ch; 1350 Кбит/сек Язык Японский ; Озвучка 2: Оригинал
Complete name : D:\special\[Beatrice-Raws] No Game No Life Zero (Theater manner anime) [BDRip 1920x1080 x264 FLAC].mkvFormat : MatroskaFormat version : Version 4 / Version 2File size : 263 MiBDuration : 2 min 31 sOverall bit rate mode : VariableOverall bit rate : 14.6 Mb/sEncoded date : UTC 2018-03-07 13:28:55Writing application : mkvmerge v20.0.0 ('I Am The Sun') 64-bitWriting library : libebml v1.3.5 + libmatroska v1.4.8

VideoID : 1Format : AVCFormat/Info : Advanced Video CodecFormat profile : High [email protected] settings : CABAC / 4 Ref FramesFormat settings, CABAC : YesFormat settings, ReFrames : 4 framesCodec ID : V_MPEG4/ISO/AVCDuration : 2 min 31 sBit rate : 13.0 Mb/sWidth : 1 920 pixelsHeight : 1 080 pixelsDisplay aspect ratio : 16:9Frame rate mode : ConstantFrame rate : 23.976 (24000/1001) FPSColor space : YUVChroma subsampling : 4:2:0Bit depth : 10 bitsScan type : ProgressiveBits/(Pixel*Frame) : 0.262Stream size : 235 MiB (90%)Title : BDrip by JensenWriting library : x264 core 152 r2851 ba24899

Audio #1ID : 2Format : AACFormat/Info : Advanced Audio CodecFormat profile : LCCodec ID : A_AAC-2Duration : 2 min 31 sBit rate : 192 kb/sChannel(s) : 2 channelsChannel positions : Front: L RSampling rate : 48.0 kHzFrame rate : 46.875 FPS (1024 SPF)Compression mode : LossyStream size : 3.41 MiB (1%)Title : RuLanguage : RussianDefault : YesForced : No

Audio #2ID : 3Format : FLACFormat/Info : Free Lossless Audio CodecCodec ID : A_FLACDuration : 2 min 31 sBit rate mode : VariableBit rate : 1 332 kb/sChannel(s) : 2 channelsChannel positions : Front: L RSampling rate : 48.0 kHzFrame rate : 11.723 FPS (4095 SPF)Bit depth : 24 bitsStream size : 24.0 MiB (9%)Title : JPWriting library : libFLAC 1.3.1 (UTC 2014-11-25)Language : JapaneseDefault : NoForced : No
...5525345 - наличие озвучки


Трекер:  [ 07-Мар-2018 17:30 ]

  

Скачать .torrent

Размер .torrent файла 10 KB


Размер: 263 MB
Хэш (hash) релиза: ff06e78ead81e1cbf6501a1556b7da0f6e47f479
Подписка на обновления:

Еще никто не оставлял запись к записи скачать торрент Нет игры — нет жизни: Начало No Game No Life: Zero . Будь первым!

!Обратная связь