Bastion / The Stand | The Purest Hook (Second Circle Tattoos #3) | Andre the Giant

Скачать через торрент Высокие ставки: Реванш Сезон 2 Фильм бесплатно в хорошем качестве torrent

Скачивайте на UnionPeer.org фильмы через торрент без регистрации. Новинки кино в хорошем качестве через торрент. На UnionPeer.org можно скачать через торрент фильмы 2014 и 2015 годов. Самые новые фильмы.

Скачать торрент Высокие ставки: Реванш Сезон 2 бесплатно через .torrent фильм мультфильм сериал

Статистика раздачи
Размер:  5.64 GB   |    Зарегистрирован:  4 месяца 10 дней   |    .torrent скачан:  142 раза   |   
Раздают:  1  
   
загрузка...
 
Автор Сообщение

Galfimbul

avatar Galfimbul


Высокие ставки: Реванш (2 сезон)
Год выпуска: 2018
Производство: Россия / "Триикс Медиа" по заказу телеканала НТВ
Жанр: драма, криминал
Продолжительность: ~ 00:48:04
Субтитры: нет
Режиссёр: Максим Бриус
В ролях: Алексей Нилов, Лукерия Ильяшенко, Максим Дахненко, Роман Павлушев, Валентин Кузнецов, Екатерина Кашина, Александр Дергапутский, Нина Петровская, Мария Жиганова, Екатерина Полякова и др.
Описание: Современные технологии наступают, не оставляя Космонавту шансов на развитие и получение стабильного дохода. Он продолжает управлять своими игорными заведениями, пока Капитан отбывает наказание, взяв на себя вину Сергеева. После тех событий прошло уже несколько лет, за это время позиции Космонавта на игорном рынке несколько пошатнулись. Все чаще его клиенты стали отдавать предпочтение альтернативному варианту проведения досуга за карточным столом или рулеткой - онлайн казино, а для Сергеева это - прямые конкуренты, и главным из них стала некая Глория Филиппенкова, весьма оперативно сориентировавшаяся в современных тенденциях. Именно ее интернет-ресурс Russian Glory отбирает у Космонавта немалую часть дохода...
Реклама: Нет.

Все раздачи сериала
Качество: WEBRip 720p
Формат: MKV
Видео кодек: AVC/H.264
Аудио кодек: AC3
Видео: MPEG4 AVC Video, H264, 16:9, 1280x720, 25 fps, ~2500 kbps, 0.109 bit/pixel
Аудио: AC3, 48.0 kHz, 2 ch, 256 kbps CBR
Отдельная благодарность Alone_Kedr за предоставление исходников. Спасибо!
Раздача ведётся путём добавления новых серий, при каждом добавлении создаётся новый торрент. Чтобы начать докачку новой серии, пользователям необходимо сделать следующее:

- Остановить скачивание.
- Удалить старый торрент у себя из клиента (старые серии удалять не надо).
- Скачать новый торрент и запустить его у себя в клиенте вместо старого, при этом указать клиенту путь в старую папку куда и должно происходить скачивание новых серий.

Ваш клиент при этом должен произвести хеширование (проверку) старой папки (если не производит сам - помогите ему сделать это), и будет докачивать только те серии которых у вас ещё нет. Старые серии при этом не удаляются, а продолжают раздаваться!
Если вы уже удалили старые серии, то предотвратить повторную закачку старых серий можно, отжав галочку в соответствующих местах при запуске нового торрента. По возможности, желательно не удалять старые серии как можно дольше, чтобы релизер не столько продолжал раздавать старые серии, а смог сконцентрироваться на новых.
General
Unique ID : 225806611636399836758145574207071730342 (0xA9E0C580F750D806909CE36608903AA6)
Complete name : F:\ФИЛЬМЫ\Высокие Ставки 2. Реванш\Высокие_Ставки_Реванш_01.mkv
Format : Matroska
Format version : Version 4 / Version 2
File size : 949 MiB
Duration : 48 min 4 s
Overall bit rate mode : Constant
Overall bit rate : 2 759 kb/s
Writing application : Lavf57.71.100
Writing library : Lavf57.71.100
ErrorDetectionType : Per level 1
BUFFER_AVERAGE : 271337
DEVICECONFORMANCETEMPLATE : [email protected]
FSCSETTINGS : 35
ISVBR : 1
VBR_PEAK : 20597075
WMFSDKNEEDED : 0.0.0.0000
WMFSDKVERSION : 12.0.16299.248

Video
ID : 1
Format : AVC
Format/Info : Advanced Video Codec
Format profile : [email protected]
Format settings, CABAC : Yes
Format settings, ReFrames : 1 frame
Format settings, GOP : M=1, N=25
Codec ID : V_MPEG4/ISO/AVC
Duration : 48 min 4 s
Bit rate mode : Constant
Bit rate : 2 500 kb/s
Width : 1 280 pixels
Height : 720 pixels
Display aspect ratio : 16:9
Frame rate mode : Constant
Frame rate : 25.000 FPS
Color space : YUV
Chroma subsampling : 4:2:0
Bit depth : 8 bits
Scan type : Progressive
Bits/(Pixel*Frame) : 0.109
Stream size : 842 MiB (89%)
Language : English
Default : Yes
Forced : No
DURATION : 00:48:04.445000000

Audio
ID : 2
Format : AC-3
Format/Info : Audio Coding 3
Format settings, Endianness : Big
Codec ID : A_AC3
Duration : 48 min 4 s
Bit rate mode : Constant
Bit rate : 256 kb/s
Channel(s) : 2 channels
Channel positions : Front: L R
Sampling rate : 48.0 kHz
Frame rate : 31.250 FPS (1536 spf)
Bit depth : 16 bits
Compression mode : Lossy
Stream size : 88.0 MiB (9%)
Language : English
Service kind : Complete Main
Default : Yes
Forced : No
DURATION : 00:48:04.480000000


Трекер:  [ 07-Мар-2018 16:18 ]

  

Скачать .torrent

Размер .torrent файла 29 KB


Размер: 5.64 GB
Хэш (hash) релиза: 9cd2330aa63e95d71e5e92e91269d7d7b77738cb
Подписка на обновления:

Еще никто не оставлял запись к записи скачать торрент Высокие ставки: Реванш Сезон 2 . Будь первым!

!Обратная связь