Minecraft Story Mode (2015) XBOX360 | Tracklist Download Links | 24 Hours in A&E staffel 15 folge 10 deutsch stream

Скачать через торрент Детское время Kodomo no Jikan бесплатно Аниме Все серии на русском torrent

Статистика раздачи
Размер:  5.11 GB   |    Зарегистрирован:  4 месяца 14 дней   |    .torrent скачан:  33 раза   |   
Раздают:  1   Качают:  1  
   
загрузка...
 
Автор Сообщение

Galfimbul

avatar Galfimbul


Детское время
Kodomo no Jikan OAD
A Child's Time
こどものじかん OAD
Страна: Япония
Год выпуска: 2007-2011
Жанр: комедия, романтика, драма, этти
Тип: OVA
Продолжительность: 3 эп. по ~23 мин., 1 эп. - 1ч. 26 мин.

Режиссер: Суганума Эйдзи
Автор оригинала: Ватасия Каору

Студия:
Информационные ссылки: AniDB || MyAnimeList
Описание: Дайсукэ Аоки 23 года, он только что получил диплом учителя младших классов и поступил на должность в свою первую школу. Аоки-сенсэй молод, чист душой и телом, и полон симпатии к детям. При этом он НЕ педофил!..

...но кто бы мог подумать, что это обстоятельство затруднит Аоки-сану профессиональную адаптацию? На первом же уроке прелестная младшеклассница Рин Коконоэ осведомляется, есть ли у сенсэя девушка. Услышав отрицательный ответ, она сообщает, что намерена занять вакантную должность...© Анастасия Розанова, World ArtЭпизоды, выпускавшиеся на DVD в комплекте с ограниченными изданиями томов манги:
"What You Gave Me" - c 4-ым томом. По сюжету располагается между 9-ой и 10-ой сериями ТВ-сериала;
"Rin's Classroom Diary" - с 5-ым томом. Полуторачасовой коллаж ТВ-сериала;
"Shiro-chan, Kuro-chan" - с 6-ым томом. По сюжету располагается между 1-ой и 2-ой сериями OVA Ni Gakki;
"A Child's Summer Time" - с 9-ым томом.
Русские субтитры:

Перевод: P-chan, Редактура: Pelikan & Haru-kaze - эпизод "What You Gave Me"

Перевод: Pelikan - эпизоды "Shiro-chan, Kuro-chan" и "A Child`s Summer Time"
Озвучка:

Henesy (мужская, одноголосая) - эпизод "What You Gave Me"
Henesy & Oliva (мужская/женская, двухголосая) - эпизод "Shiro-chan, Kuro-chan"
Юки Нацуи [Animegroup] (мужская, одноголосая) - эпизоды "Shiro-chan, Kuro-chan" и "Rin`s Classroom Diary"
Honya & Kasumi & Henesy (женская/женская/мужская, трехголосая) - эпизод"A Child`s Summer Time"
Качество: DVDRip
Тип видео: без хардсаба
Автор рипа: Urotsuki [Beatrice-Raws]
Формат: MKV
Наличие линковки: нет
Видео: HEVC, 1280x720, 10 бит, 3852 Кбит/сек, 23.976 кадр/сек
Аудио: AC3 (Dolby Digital), 448 Кбит/сек, 48,0 КГц, 2 канала - Язык Японский
Аудио 2: MP3, 192 Кбит/сек, 48,0 КГц, 2 канала - Язык Русский (внешними файлами) |Henesy & Oliva|
Аудио 3: AC3 (Dolby Digital), 192 Кбит/сек, 48,0 КГц, 2 канала - Язык Русский (внешними файлами) |Animegroup "Shiro-chan, Kuro-chan"|
Аудио 4: Vorbis, 288 Кбит/сек, 48,0 КГц, 2 канала - Язык Русский (внешними файлами) |Animegroup "Rin`s Classroom Diary"|
Аудио 5: MP3, 128 Кбит/сек, 44,1 КГц, 2 канала - Язык Русский (внешними файлами) |Henesy|
Аудио 6: AC3 (Dolby Digital), 192 Кбит/сек, 48 КГц, 2 канала - Язык Русский (внешними файлами) |Honya & Kasumi & Henesy|
1. What You Gave Me
2. Rin`s Classroom Diary (Special Compilation)
3. Shiro-chan, Kuro-chan
4. A Child`s Summer Time
...4499290 - лучшее качество видео:
там -
здесь -
...3384036 - наличие русскоязычной дорожки
...3427390 и ...4499297 (одинаковое видео) - лучшее качество видео:
http://diff.pics/-7faNQ3HsiCS/1
ОбщееУникальный идентификатор : 84477044100320432514125779577373880517 (0x3F8DAFD7AB8430238464E6729A2670C5)Полное имя : ..\Kodomo no Jikan\[Beatrice-Raws] Kodomo no Jikan OAD [DVDRip 1280x720 HEVC AC3]\[Beatrice-Raws] Kodomo no Jikan OAD (A Child`s Summer Time) [DVDRip 1280x720 HEVC AC3].mkvФормат : MatroskaВерсия формата : Version 4 / Version 2Размер файла : 719 МбайтПродолжительность : 23 м. 21 с.Общий поток : 4302 Кбит/секДата кодирования : UTC 2018-03-07 03:18:29Программа кодирования : mkvmerge v20.0.0 ('I Am The Sun') 64-bitБиблиотека кодирования : libebml v1.3.5 + libmatroska v1.4.8

ВидеоИдентификатор : 1Формат : HEVCФормат/Информация : High Efficiency Video CodingПрофиль формата : Main [email protected]@MainИдентификатор кодека : V_MPEGH/ISO/HEVCПродолжительность : 23 м. 21 с.Битрейт : 3852 Кбит/секШирина : 1280 пикселейВысота : 720 пикселейСоотношение сторон : 16:9Режим частоты кадров : ПостоянныйЧастота кадров : 23,976 (24000/1001) кадра/секЦветовое пространство : YUVСубдискретизация насыщенности : 4:2:0Битовая глубина : 10 битБит/(Пиксели*Кадры) : 0.174Размер потока : 643 Мбайт (90%)Заголовок : DVDRip by UrotsukiБиблиотека кодирования : x265 2.7+1-2aa737a99f51:[Windows][MSVC 1900][64 bit] 10bitНастройки программы : cpuid=1173503 / frame-threads=2 / numa-pools=4 / wpp / no-pmode / no-pme / no-psnr / no-ssim / log-level=2 / csv / csv-log-level=2 / input-csp=1 / input-res=1280x720 / interlace=0 / total-frames=0 / level-idc=0 / high-tier=1 / uhd-bd=0 / ref=4 / no-allow-non-conformance / no-repeat-headers / annexb / no-aud / no-hrd / info / hash=0 / no-temporal-layers / no-open-gop / min-keyint=23 / keyint=240 / gop-lookahead=0 / bframes=9 / b-adapt=2 / b-pyramid / bframe-bias=0 / rc-lookahead=20 / lookahead-slices=4 / scenecut=40 / radl=0 / no-intra-refresh / ctu=32 / min-cu-size=8 / no-rect / no-amp / max-tu-size=32 / tu-inter-depth=2 / tu-intra-depth=2 / limit-tu=0 / rdoq-level=2 / dynamic-rd=0.00 / no-ssim-rd / signhide / no-tskip / nr-intra=0 / nr-inter=0 / no-constrained-intra / no-strong-intra-smoothing / max-merge=3 / limit-refs=2 / limit-modes / me=2 / subme=5 / merange=48 / temporal-mvp / weightp / weightb / no-analyze-src-pics / deblock=1:-1 / no-sao / no-sao-non-deblock / rd=4 / no-early-skip / no-rskip / no-fast-intra / no-tskip-fast / no-cu-lossless / no-b-intra / no-splitrd-skip / rdpenalty=0 / psy-rd=2.00 / psy-rdoq=4.00 / no-rd-refine / no-lossless / cbqpoffs=0 / crqpoffs=0 / rc=crf / crf=15.0 / qcomp=0.72 / qpstep=4 / stats-write=0 / stats-read=0 / ipratio=1.40 / pbratio=1.30 / aq-mode=3 / aq-strength=0.85 / no-cutree / zone-count=0 / no-strict-cbr / qg-size=16 / no-rc-grain / qpmax=69 / qpmin=0 / no-const-vbv / sar=1 / overscan=0 / videoformat=5 / range=0 / colorprim=1 / transfer=1 / colormatrix=1 / chromaloc=0 / display-window=0 / max-cll=0,0 / min-luma=0 / max-luma=1023 / log2-max-poc-lsb=8 / vui-timing-info / vui-hrd-info / slices=1 / no-opt-qp-pps / no-opt-ref-list-length-pps / no-multi-pass-opt-rps / scenecut-bias=0.05 / no-opt-cu-delta-qp / no-aq-motion / no-hdr / no-hdr-opt / no-dhdr10-opt / analysis-reuse-level=5 / scale-factor=0 / refine-intra=0 / refine-inter=0 / refine-mv=0 / no-limit-sao / ctu-info=0 / no-lowpass-dct / refine-mv-type=0 / copy-pic=1Язык : JapaneseDefault : ДаForced : НетЦветовой диапазон : LimitedОсновные цвета : BT.709Характеристики трансфера : BT.709Коэффициенты матрицы : BT.709

АудиоИдентификатор : 2Формат : AC-3Формат/Информация : Audio Coding 3Идентификатор кодека : A_AC3Продолжительность : 23 м. 21 с.Вид битрейта : ПостоянныйБитрейт : 448 Кбит/секКаналы : 2 каналаРасположение каналов : Front: L RЧастота : 48,0 КГцЧастота кадров : 31,250 кадров/сек (1536 SPF)Битовая глубина : 16 битМетод сжатия : С потерямиРазмер потока : 74,8 Мбайт (10%)Язык : JapaneseServiceKind/String : Complete MainDefault : ДаForced : Нет

Меню00:00:00.000 : :Avant00:01:07.530 : :OP00:02:37.000 : :Part A00:11:30.000 : :Part B00:21:25.000 : en:ED

В: Чем смотреть?
О: Как смотреть 10-битное видео (10-bit)
В: Как посмотреть с озвучкой?
О: Скопировать файлы из папки "RUS Sound/(нужный вариант)" в одну папку с видео, и переключить звуковую дорожку в плеере при просмотре. Либо открыть внешнюю аудиодорожку при просмотре видео (если такая функция есть в плеере). Как это сделать в разных плеерах можно узнать здесь.
В: Как посмотреть с субтитрами?
О: Если плеер не подключил субтитры автоматически, то нужно скопировать файлы из папки "RUS Subs" в одну папку с видео. Либо открыть внешние субтитры при просмотре видео (если такая функция есть в плеере).


Трекер:  [ 07-Мар-2018 10:01 ]

  

Скачать .torrent

Размер .torrent файла 28 KB


Размер: 5.11 GB
Хэш (hash) релиза: e8f54198c3f03ae92e55ba571fddd1de55a85ea4
Подписка на обновления:

Торренты, похожие на Детское время Kodomo no Jikan скачать торрент

Форум Название Автор Размер S L Добавлен
Аниме | Rips ·· Детское время / Kodomo no Jikan / A Child's Time [TV][12 из 12][без хардсаба][RUS(ext),JAP+SUB] [2007, комедия, романтика, драма, этти, DVDRip] Galfimbul 101931030289.49 GB 0 0 1519909310

16:01

1-Мар-18

Аниме | Rips ·· Детское время / Kodomo no Jikan / A Child's Time [TV][12 из 12][без хардсаба][RUS(ext),JAP+SUB] [2007 г., комедия, романтика, драма, этти, DVDRip] Galfimbul 1162342553410.83 GB 0 0 1436133187

00:53

6-Июл-15

Аниме | Rips ·· Детское время / Kodomo no Jikan / A Child's Time [OVA][1,3 из 4][без хардсаба][RUS(ext),JAP+SUB] [2007-2009 гг., комедия, романтика, драма, этти, DVDRip] Galfimbul 21931605972.04 GB 0 0 1436133181

00:53

6-Июл-15

Манга ·· Watashiya Kaworu / Ватасия Каору - Детское время / Kodomo no Jikan / A Child's Time [manga] [1-93 + specials] [2005 г., комедия, драма, эротика, романтика, школа, сэйнэн, повседневность] [complete] Polarnik 14559601181.36 GB 0 0 1372516981

17:43

29-Июн-13

Манга ·· Watashiya Kaworu / Ватасия Каору - Детское время / Kodomo no Jikan / A Child's Time [главы 1-29][manga][2005][incomplete] Galfimbul 178574245170 MB 0 0 1314130329

23:12

23-Авг-11

Аниме | Rips ·· Детское время: Второй семестр / Kodomo no Jikan: Ni Gakki / A Child's Time: Second Term [OVA][3 из 3][без хардсаба][RUS(ext),JAP+SUB] [2009, комедия, романтика, драма, этти, DVDRip] Galfimbul 29191495812.72 GB 0 0 1519963312

07:01

2-Мар-18

Аниме | Rips ·· Детское время: Второй семестр / Kodomo no Jikan: Ni Gakki / A Child's Time: Second Term [OVA][3 из 3][без хардсаба][RUS(ext),JAP+SUB] [2009 г., комедия, романтика, драма, этти, DVDRip] Galfimbul 30907665472.88 GB 0 0 1436133184

00:53

6-Июл-15

Аниме | Rips ·· Детское время: Второй семестр / Kodomo no Jikan: Ni Gakki / A Child's Time: Second Term (Суганума Эйдзи) [OVA+Special][3+1 из 3+1][без хардсаба][RUS(ext),JAP+SUB] [2009 г., комедия, романтика, драма, этти, DVDRip] Galfimbul 17011047371.58 GB 0 0 1376426798

23:46

13-Авг-13

Обои, артбуки и др. ·· Watashiya Kaworu / Ватасия Каору - Детское время / A child's time / Kodomo no Jikan [manga] [1-87+6 спешлов] [2005 г., комедия, романтика, драма, школа, этти] [incomplete] Polarnik 13123145131.22 GB 0 0 1353947220

19:27

26-Ноя-12

Еще никто не оставлял запись к записи скачать торрент Детское время Kodomo no Jikan . Будь первым!

!Обратная связь