OpenLoad | 50 Hot Summer Tunes For Your Beachday | Las mas votadas

Скачать через торрент Ковбои Серии: 1-16 из 16 Фильм бесплатно в хорошем качестве torrent

Скачивайте на UnionPeer.org фильмы через торрент без регистрации. Новинки кино в хорошем качестве через торрент. На UnionPeer.org можно скачать через торрент фильмы 2014 и 2015 годов. Самые новые фильмы.

Скачать торрент Ковбои Серии: 1-16 из 16 бесплатно через .torrent фильм мультфильм сериал

Статистика раздачи
Размер:  9.6 GB   |    Зарегистрирован:  4 месяца 11 дней   |    .torrent скачан:  62 раза   |   
Раздают:  1  
   
загрузка...
 
Автор Сообщение

Galfimbul

avatar Galfimbul


Ковбои

Год выпуска: 2013
Производство: "Навигатор", "Форвард-фильм"
Жанр: детектив, драма
Продолжительность: 16 x ~ 00:45:00
Субтитры: Нет

Режиссёр: Станислав Титаренко

В ролях: Егор Бероев, Алексей Комашко, Дмитрий Орлов (III), Андрей Перович, Роман Грибков, Олег Алмазов, Роман Агеев, Светлана Смирнова-Марцинкевич, Анна Арефьева, Валерий Соловьёв, Эрик Кения, Татьяна Бондаренко (II), Денис Синявский, Александр Кудренко, Елена Радевич, Сергей Яценюк, Геша Меньшиков, Дмитрий Паламарчук, Руслан Барабанов, Алексей Белозерцев, Виталий Горев, Дмитрий Олейник, Рустам Насыров, Антон Багров, Александр Большаков, Лидия Викторова, Елена Павловская, Диана Дезмари, Ирина Гершт, Борис Драгилев, Валерий Скляров, Михаил Кудрявцев, Артём Мустафин, Виктор Выбриенко, Евгений Капитонов, Ольга Калмыкова, Владимир Михайлов (VI), Андрей Мокеев, Даниил Кокин, Сергей Колос, Николай Куглянт, Марина Доможирова, Георгий Маришин, Лилия Гильмутдинова, Александр Лазарев (III), Александр Иванов (XIV), Михаил Мурадян, Александр Удалов, Владимир Бирюков, Михаил Бондарук, Алла Еминцева, Александр Носов, Алина Панова, Виталий Куликов, Александр Нестеров (III), Игорь Волков (II), Роберт Студеновский, Виктор Бабич, Андрей Некрасов (III), Антон Багмет, Алексей Лудинов, Илья Борисов, Александр Дергапутский, Иван Батарев, Вадим Яковлев, Николай Горшков, Антон Юрьев, Дмитрий Лебедев (III), Елена Игнатьева, Роман Нестеренко

Описание: "Ковбои" - так друзья и коллеги сокращенно называют трех оперов "убойного отдела". Прозвище слагается из их фамилий: Стас Ковальский, Игорь Бойцов и Саша Боер. У них абсолютно разные интересы и образ жизни. Однако это не помешало им быть лучшими сотрудниками в отделе по раскрытию умышленных убийств ГУ МВД по Санкт-Петербургу. Они энергичны, умны, профессиональны...

Доп. информация: Из-за отсутствия HD-исходников четыре последние серии выложены в формате 720x400.

Реклама: Нет

Сэмпл: http://multi-up.com/1189403

Качество: WEBRip-AVC
Формат: MKV
Видео кодек: H.264
Аудио кодек: AC3
Видео: MPEG-4 (AVC), 1024x576, 25 fps, ~1800 kbps, 0.12 bit/pixel (1-12 серии)
Видео: MPEG-4 (AVC), 720x400, 25 fps, ~1600 kbps, 0.22 bit/pixel (13-16 серии)
Аудио: AC3, 48.0 kHz, 2 ch, 192 Kbps
General
Unique ID : 189845056419546275274791971316587939079 (0x8ED2D3F0F114630AAD1BCE1FCE6DC507)
Complete name : Ковбои (01 сер.).mkv
Format : Matroska
Format version : Version 2
File size : 633 MiB
Duration : 44 min 23 s
Overall bit rate : 1 994 kb/s
Encoded date : UTC 2018-03-01 15:16:19
Writing application : mkvmerge v7.8.0 ('River Man') 32bit built on Apr 3 2015 12:11:22
Writing library : libebml v1.3.1 + libmatroska v1.4.2

Video
ID : 1
Format : AVC
Format/Info : Advanced Video Codec
Format profile : [email protected]
Format settings, CABAC : Yes
Format settings, ReFrames : 6 frames
Codec ID : V_MPEG4/ISO/AVC
Duration : 44 min 23 s
Bit rate : 1 800 kb/s
Width : 1 024 pixels
Height : 576 pixels
Display aspect ratio : 16:9
Frame rate mode : Constant
Frame rate : 25.000 FPS
Color space : YUV
Chroma subsampling : 4:2:0
Bit depth : 8 bits
Scan type : Progressive
Bits/(Pixel*Frame) : 0.122
Stream size : 572 MiB (90%)
Writing library : x264 core 152 r2851 ba24899
Encoding settings : cabac=1 / ref=6 / deblock=1:0:0 / analyse=0x3:0x113 / me=umh / subme=8 / psy=1 / psy_rd=1.00:0.00 / mixed_ref=1 / me_range=24 / chroma_me=1 / trellis=1 / 8x8dct=1 / cqm=0 / deadzone=21,11 / fast_pskip=1 / chroma_qp_offset=-2 / threads=8 / lookahead_threads=1 / sliced_threads=0 / nr=0 / decimate=1 / interlaced=0 / bluray_compat=0 / stitchable=1 / constrained_intra=0 / bframes=6 / b_pyramid=2 / b_adapt=1 / b_bias=0 / direct=3 / weightb=1 / open_gop=0 / weightp=2 / keyint=250 / keyint_min=25 / scenecut=40 / intra_refresh=0 / rc_lookahead=40 / rc=2pass / mbtree=1 / bitrate=1800 / ratetol=1.0 / qcomp=0.60 / qpmin=0 / qpmax=69 / qpstep=4 / cplxblur=20.0 / qblur=0.5 / ip_ratio=1.40 / aq=1:1.00
Default : Yes
Forced : No

Audio
ID : 2
Format : AC-3
Format/Info : Audio Coding 3
Format settings, Endianness : Big
Codec ID : A_AC3
Duration : 44 min 23 s
Bit rate mode : Constant
Bit rate : 192 kb/s
Channel(s) : 2 channels
Channel positions : Front: L R
Sampling rate : 48.0 kHz
Frame rate : 31.250 FPS (1536 spf)
Bit depth : 16 bits
Compression mode : Lossy
Stream size : 61.0 MiB (10%)
Service kind : Complete Main
Default : Yes
Forced : No
Предыдущие и альтернативные раздачи

Трекер:  [ 07-Мар-2018 07:48 ]

  

Скачать .torrent

Размер .torrent файла 25 KB


Размер: 9.6 GB
Хэш (hash) релиза: 47be1cfbb41754dba48f87707d60e511b05ed8ce
Подписка на обновления:

Торренты, похожие на Ковбои Серии: 1-16 из 16 скачать торрент

Форум Название Автор Размер S L Добавлен
Российские сериалы ·· Ковбои / Серии: 1-16 из 16 (Станислав Титаренко) [2013, детектив, драма, WEBRip] Galfimbul 92272493128.59 GB 0 0 1491754376

19:12

9-Апр-17

Российские сериалы ·· Ковбои / Серии: 1-16 из 16 (Станислав Титаренко) [2013, боевик, детектив, криминал, WEBRip] Galfimbul 92301492248.6 GB 0 0 1487418691

14:51

18-Фев-17

Еще никто не оставлял запись к записи скачать торрент Ковбои Серии: 1-16 из 16 . Будь первым!

!Обратная связь