Trial and Retribution | TheVideo | Fantastique

Скачать через торрент Сестры Момоиро Розовые сестры бесплатно Аниме Все серии на русском torrent

Статистика раздачи
Размер:  116 MB   |    Зарегистрирован:  4 месяца 15 дней   |    .torrent скачан:  30 раз   |   
Раздают:  1  
   
загрузка...
 
Автор Сообщение

Galfimbul

avatar Galfimbul


Сестры Момоиро / Розовые сестры / Pink Sisters / Momoiro Sisters
Страна: Япония
Год выпуска: 1998 (26.08.1998 - 06.10.1998)
Жанр: комедия, повседневность, этти
Тип: TV
Продолжительность: 1 (из 24) эпизодов по 7 мин.
Русская озвучка: нету <img class="smile" src="//static.t-ru.org/smiles/icon_sad.gif" alt="">

Русские субтитры: Есть
Хардсаб: Нет
Режиссер: Shirahata Bob
Студия:
Описание: Сестры Момоиро - короткое аниме (приблизительно 5 минут для каждого эпизоды). История вращает вокруг двух сестер, одна - студент средней школы, а вторая – офис леди.
История сосредотачивается на женских проблемах (как грудь, в первый раз, пол вообще, медицинские проблемы и так далее) с женской точки зрения. Это походит на наблюдение оживляемой версии женского журнала...
01. Lets Begin
02. Exciting Summer Diet
03. Beautiful Girls Die Young, Unlucky Young Lady
04. Probably One Day..
05. Yukari-chan's Tough Times
06. Lunch is Love's Symplony
07. Happy Valentine
08. Midsummer Love Love Fire
09. I Have Made a Boyfriend!
10. Aa First Kiss!
11. The First Wet One
12. Docking of Love
13. Super Big-breast Hot-spring
14. I Think I've Done It..
15. The Dreamed Marriage Retirement
16. Now Let's Focus on Reality!
17. Let's go Hunting with Rin-chan!
18. When I turned to the Side, You were there
19. Washed Away..
20. The Jungle Queen
21. Blue Coral Reef
22. Its a School Festival! Everyone Help!
23. Haunted House of Love
24. Legendary Idol Momoko

Качество: DVDRip | Релиз/Автор рипа: Beatrice-Raws (исходник для рипа предоставлен г-ном dron-6z, сканы сделаны им же)
Формат видео: MKV | Наличие линковки: нет

Видео: x264 (10 bit), 640x480, 29.97 fps, ~1775 Kbps

Аудио: JAP - AC3, 48000Hz, ~192 Kbps, 2ch - в контейнере.

Субтитры:

(01-15): русские (полные) - [Igor Nikolaevich] - ass, внешние
(16-24): русские (полные) - [Sergo] - srt, внешние
<div class="sp-wrap">
<div class="sp-head folded">Avdump</div>
<div class="sp-body">

File: W:\Relises\Momoiro Sisters [DVDRip 10bit]\[Beatrice-Raws] Momoiro Sisters 01 [DVDRip 640x480 x264 AC3].mkv Duration: 00:06:31 (390.99) Track #1: video (DVDRip by Urotsuki) lang: jpn (2) codc: V_MPEG4/ISO/AVC -> H264/AVC (22) reso: 640x480 (640x480) -> 4:3 fram: 29.97 fps rate: 1775 kbps (1774.81) dura: 00:06:31 (390.957) size: 82.72 MB (86734396) Track #2: audio (Audio from DVD) lang: jpn -> Japanese (2) codc: A_AC3 -> AC3 (2) chan: 2 -> Stereo samp: 48000 Hz rate: 192 kbps (192.12) dura: 00:06:31 (390.72) size: 8.95 MB (9383408) Sizes: (check sanity) disk: 91.76 MB (96221777) trac: 91.67 MB (96117804) [based on track size] bitr: 91.67 MB (96123438) [based on bitrate] tdif: 101.54 KB (103973) 0.10% bdif: 96.03 KB (98338) 0.10%

General
Unique ID                                : 33801517123425442821169811602670135899 (0x196DEF765550B635519CE9BBF4D8AA5B)
Complete name                            : W:\Relises\Momoiro Sisters [DVDRip 10bit]\[Beatrice-Raws] Momoiro Sisters 01 [DVDRip 640x480 x264 AC3].mkv
Format                                   : Matroska
Format version                           : Version 4 / Version 2
File size                                : 91.8 MiB
Duration                                 : 6mn 30s
Overall bit rate                         : 1 969 Kbps
Encoded date                             : UTC 2018-02-26 12:28:15
Writing application                      : mkvmerge v19.0.0 ('Brave Captain') 64-bit
Writing library                          : libebml v1.3.5 + libmatroska v1.4.8
DURATION                                 : 00:06:30.912000000
NUMBER_OF_FRAMES                         : 12216
NUMBER_OF_BYTES                          : 9381888
_STATISTICS_WRITING_APP                  : mkvmerge v19.0.0 ('Brave Captain') 64-bit
_STATISTICS_WRITING_DATE_UTC             : 2018-02-26 12:28:15
_STATISTICS_TAGS                         : BPS DURATION NUMBER_OF_FRAMES NUMBER_OF_BYTES

Video
ID                                       : 1
Format                                   : AVC
Format/Info                              : Advanced Video Codec
Format profile                           : High [email protected]
Format settings, CABAC                   : Yes
Format settings, ReFrames                : 9 frames
Codec ID                                 : V_MPEG4/ISO/AVC
Duration                                 : 6mn 30s
Bit rate                                 : 1 738 Kbps
Width                                    : 640 pixels
Height                                   : 480 pixels
Display aspect ratio                     : 4:3
Frame rate mode                          : Constant
Frame rate                               : 29.970 fps
Color space                              : YUV
Chroma subsampling                       : 4:2:0
Bit depth                                : 10 bits
Scan type                                : Progressive
Bits/(Pixel*Frame)                       : 0.189
Stream size                              : 81.0 MiB (88%)
Title                                    : DVDRip by Urotsuki
Writing library                          : x264 core 152 r2851 ba24899 (DJATOM's build)
Encoding settings                        : cabac=1 / ref=9 / deblock=1:1:-1 / analyse=0x3:0x113 / me=umh / subme=9 / psy=1 / psy_rd=1.00:0.00 / mixed_ref=1 / me_range=32 / chroma_me=1 / trellis=2 / 8x8dct=1 / cqm=0 / deadzone=21,11 / fast_pskip=1 / chroma_qp_offset=-2 / threads=12 / lookahead_threads=2 / sliced_threads=0 / nr=0 / decimate=1 / interlaced=0 / bluray_compat=0 / constrained_intra=0 / bframes=9 / b_pyramid=2 / b_adapt=2 / b_bias=0 / direct=1 / weightb=1 / open_gop=0 / weightp=2 / keyint=250 / keyint_min=25 / scenecut=40 / intra_refresh=0 / rc=crf / mbtree=0 / crf=15.0000 / qcomp=0.72 / qpmin=0 / qpmax=81 / qpstep=4 / ip_ratio=1.40 / pb_ratio=1.30 / aq=1:1.00
Language                                 : Japanese
Default                                  : Yes
Forced                                   : No
Color primaries                          : BT.601 PAL
Transfer characteristics                 : BT.470 System B, BT.470 System G
Matrix coefficients                      : BT.601

Audio
ID                                       : 2
Format                                   : AC-3
Format/Info                              : Audio Coding 3
Mode extension                           : CM (complete main)
Format settings, Endianness              : Big
Codec ID                                 : A_AC3
Duration                                 : 6mn 30s
Bit rate mode                            : Constant
Bit rate                                 : 192 Kbps
Channel count                            : 2 channels
Channel positions                        : Front: L R
Sampling rate                            : 48.0 KHz
Bit depth                                : 16 bits
Compression mode                         : Lossy
Stream size                              : 8.95 MiB (10%)
Title                                    : Audio from DVD
Language                                 : Japanese
Default                                  : Yes
Forced                                   : No
</div>
</div>

...2329582 - отсутствие хардсаба



Трекер:  [ 07-Мар-2018 03:30 ]

  

Скачать .torrent

Размер .torrent файла 1 KB


Размер: 116 MB
Хэш (hash) релиза: 3362e871a016fcfa5550714f9b8edd725c54d83c
Подписка на обновления:

Еще никто не оставлял запись к записи скачать торрент Сестры Момоиро Розовые сестры . Будь первым!

!Обратная связь