Mohouhan (SP) | The Originals | Huo Xian San Xiong Di

Скачать через торрент Чужие родные Серии: 1-8 из 8 Фильм бесплатно в хорошем качестве torrent

Скачивайте на UnionPeer.org фильмы через торрент без регистрации. Новинки кино в хорошем качестве через торрент. На UnionPeer.org можно скачать через торрент фильмы 2014 и 2015 годов. Самые новые фильмы.

Скачать торрент Чужие родные Серии: 1-8 из 8 бесплатно через .torrent фильм мультфильм сериал

Статистика раздачи
Размер:  4.5 GB   |    Зарегистрирован:  4 месяца 9 дней   |    .torrent скачан:  75 раз   |   
Раздают:  1  
   
загрузка...
 
Автор Сообщение

Galfimbul

avatar Galfimbul


Чужие родные

Год выпуска: 2017
Производство: кинокомпания "Упс"
Жанр: мелодрама
Продолжительность: ~00:44:00 серия
Субтитры: нет

Режиссёр: Александр Итыгилов

В ролях: Анна Кошмал, Федор Гуринец, Станислав Боклан, Александр Гетманский, Наталья Доля, Родион Галюченко, Лариса Руснак, Анастасия Цымбалару, Сергей Радченко, Олеся Гаевая, Алексей Череватенко, Андрей Титов, Анатолий Ященко, Дарья Лобода, Дарья Рыбак, Максим Мотков

Описание: Главная героиня фильма – молодая балерина Юля. Ее мать – хореограф – готовит свою девочку к отбору на зарубежные гастроли театра. В прошлом мама оставила карьеру именно из-за дочери. Юля ей "должна", она станет маминым триумфом. Провал равносилен смерти. Неудачная попытка самоубийства оборачивается для героини судьбоносной встречей с молодым человеком, который из-за нее опоздал на собственную свадьбу. Эта встреча не только меняет судьбу их обоих, но и приносит неожиданные открытия: о будущем, в котором победы и карьера – не самое главное, и о прошлом, в котором их родители когда-то любили друг друга.

Реклама: Нет.

Кино-театр

Sample

Качество: WEBRip
Формат: AVI
Видео кодек: XviD
Аудио кодек: AC3
Видео: 720x400 (1.80:1), 25 fps, XviD build 73 ~1600 kbps avg, 0.223 bit/pixel
Аудио: 48.0 kHz, AC3 Dolby Digital, 2/0 (L,R) ch, ~ 192 kbps
General
Complete name : D:\Чужие родные 2017 WEBRip\01.Чужие родные.2017.WEBRip.avi
Format : AVI
Format/Info : Audio Video Interleave
File size : 567 MiB
Duration : 43mn 53s
Overall bit rate : 1 807 Kbps
Writing application : VirtualDubMod 1.5.10.3 | www.virtualdub-fr.org || (build 2550/release)
Writing library : VirtualDubMod build 2550/release

Video
ID : 0
Format : MPEG-4 Visual
Format profile : Advanced [email protected]
Format settings, BVOP : 1
Format settings, QPel : No
Format settings, GMC : No warppoints
Format settings, Matrix : Default (MPEG)
Codec ID : XVID
Codec ID/Hint : XviD
Duration : 43mn 53s
Bit rate : 1 605 Kbps
Width : 720 pixels
Height : 400 pixels
Display aspect ratio : 16:9
Frame rate : 25.000 fps
Color space : YUV
Chroma subsampling : 4:2:0
Bit depth : 8 bits
Scan type : Progressive
Compression mode : Lossy
Bits/(Pixel*Frame) : 0.223
Stream size : 504 MiB (89%)
Writing library : XviD 1.2.1 (UTC 2008-12-04)

Audio
ID : 1
Format : AC-3
Format/Info : Audio Coding 3
Mode extension : CM (complete main)
Format settings, Endianness : Big
Codec ID : 2000
Duration : 43mn 53s
Bit rate mode : Constant
Bit rate : 192 Kbps
Channel count : 2 channels
Channel positions : Front: L R
Sampling rate : 48.0 KHz
Bit depth : 16 bits
Compression mode : Lossy
Stream size : 60.3 MiB (11%)
Alignment : Split accross interleaves
Interleave, duration : 40 ms (1.00 video frame)
Interleave, preload duration : 500 ms


Трекер:  [ 07-Мар-2018 01:18 ]

  

Скачать .torrent

Размер .torrent файла 23 KB


Размер: 4.5 GB
Хэш (hash) релиза: 8b1dba5248613443fa036c3307f670ddd6226e5c
Подписка на обновления:

Торренты, похожие на Чужие родные Серии: 1-8 из 8 скачать торрент

Форум Название Автор Размер S L Добавлен
Российские сериалы ·%· Чужие родные / Серии: 1-8 из 8 (Александр Итыгилов) [2017, мелодрама, HDTVRip 720p] Galfimbul 1087687128910.13 GB 0 0 1530292352

20:12

29-Июн-18

Российские сериалы ·· Чужие родные / Серии: 1-8 из 8 (Александр Итыгилов) [2017, мелодрама, WEBRip-AVC] Galfimbul 47977151984.47 GB 0 0 1520374904

01:21

7-Мар-18

Еще никто не оставлял запись к записи скачать торрент Чужие родные Серии: 1-8 из 8 . Будь первым!

!Обратная связь