Experimental Classical | Instrumental | Flamenco

Скачать через торрент Добро пожаловать в класс превосходства Youkoso Jitsuryoku Shijou Shugi no Kyoushitsu e бесплатно Аниме Все серии на русском torrent

Статистика раздачи
Размер:  79 GB   |    Зарегистрирован:  3 месяца 14 дней   |    .torrent скачан:  34 раза   |   
Раздают:  1  
   
загрузка...
 
Автор Сообщение

Galfimbul

avatar Galfimbul


Добро пожаловать в класс превосходства / Youkoso Jitsuryoku Shijou Shugi no Kyoushitsu e

Год выпуска: 2017
Страна: Япония
Жанр: романтика, комедия, школа
Тип: TV
Продолжительность: 12 эп. по 24 мин.
Озвучка:

Трёхголосая от Баяна & Apolon & Rokanа (AniFilm)
Многоголосая от Ados & Cleo-chan & HectoR & Kanade EU эп. 1-5 & Amikiri эп. 6-12 (AniLibria)
Многоголосая от Татьяна Борзова & Ирина Зиновкина & Сергей Кубасян & Анна Мосолова & Полина Ртищева & Александр Русаков & Влад Токарев (Студийная Банда)

Русские субтитры: есть (отдельным файлом, формат .ass)
Перевод:

Buka63, Gerale

Хардсаб: Нет
Режиссер: Киси Сэйдзи
Студия: Lerche

Описание: Нам все твердят, что демократия - это хорошо, и что власть должна быть у народа, и каждый человек при большом желании имеет право попробовать себя на этом поприще. Но на деле получается так, что в политику идут люди, которые совершенно в этой самой политике ничего не смыслят. Чтобы такого не происходило, в Японии решили обучать политиков, причём с детства. Для этого государство построило престижную старшую школу Кодо Икусэй. В ней учатся дети, которые в будущем встанут за руль управления этой страной.

Аянокоджи Киётака поступил в эту школу совсем недавно, и уже с первых минут почувствовал, что жизнь у него предстоит теперь непростая. Учащимся запрещены контакты с окружающим миром, это касается и родных. Отныне для них существует лишь школа и кампус, который похож на мини-город. В целом эта школа похожа на рай, ведь на территории школы свобода учащихся практически не ограничена. И всё было бы слишком радужно, если бы не одно "но”: это касается лишь лучших из лучших. А Аянокоджи облажался и попал в класс середнячков. Режим выживания активирован!

Качество: Blu-Ray Remux
Формат: MKV
Видео кодек: AVC
Аудио кодек: FLAC
Видео: 1920x1080 (16:9) 23,976 fps ~35,8 Mbps 8bit
Аудио:
Jap FLAC, 48000Hz, ~652 Kbps, 2ch
RUS 1-3 (ext) AAC, 48000Hz, ~192 Kbps, 2ch

Чаптеры присутствуют.
01. Что дурно? – Всё, что происходит из слабости.
02. Это огромный талант, уметь скрыть свой талант.
03. Человек — это лишь животное, которое совершает сделки. Ни одна собака не обменивается костями с другой.
04. Не надо возмущаться, что другие от нас скрывают правду, ведь мы и сами её часто от себя скрываем.
05. Ад — это другие.
06. Есть два рода лжи: Одна связана фактами и тем самым отвергает прошлое, а другая — обещание на будущее.
07. Нет ничего опаснее невежественного друга. Мудрость лучше, даже у врага.
08. Оставь надежду, всяк сюда входящий.
09. Человек обречён быть свободным.
10. Каждый человек несёт в себе самом самого опасного из предателей.
11. Но то, что люди обычно называют судьбой, по большей части лишь их собственные глупые выходки.
12. Гениальность живёт лишь одним этажом выше безумия.
Общее
Уникальный идентификатор : 182923079241234464988405339760516803801 (0x899DB41E04525877C7B7EA9E30E22CD9)
Полное имя : Z:\Anime Release - working\Youkoso Jitsuryoku Shijou Shugi no Kyoushitsu e\[anti-raws]Youkoso Jitsuryoku Shijou Shugi no Kyoushitsu e ep.01[BDRemux].mkv
Формат : Matroska
Версия формата : Version 4 / Version 2
Размер файла : 6,12 Гбайт
Продолжительность : 24 м. 2 с.
Режим общего битрейта : Переменный
Общий поток : 36,5 Мбит/сек
Дата кодирования : UTC 2018-02-04 17:51:35
Программа кодирования : mkvmerge v20.0.0 ('I Am The Sun') 64-bit
Библиотека кодирования : libebml v1.3.5 + libmatroska v1.4.8

Видео
Идентификатор : 2
Формат : AVC
Формат/Информация : Advanced Video Codec
Профиль формата : [email protected]
Настройки формата : CABAC / 4 Ref Frames
Параметр CABAC формата : Да
Параметр RefFrames формата : 4 кадра
Идентификатор кодека : V_MPEG4/ISO/AVC
Продолжительность : 24 м. 2 с.
Вид битрейта : Переменный
Битрейт : 35,8 Мбит/сек
Максимальный битрейт : 40,0 Мбит/сек
Ширина : 1920 пикселей
Высота : 1080 пикселей
Соотношение сторон : 16:9
Режим частоты кадров : Постоянный
Частота кадров : 23,976 (24000/1001) кадра/сек
Цветовое пространство : YUV
Субдискретизация насыщенности : 4:2:0
Битовая глубина : 8 бит
Тип развёртки : Прогрессивная
Бит/(Пиксели*Кадры) : 0.721
Размер потока : 6,02 Гбайт (98%)
Default : Нет
Forced : Нет
Цветовой диапазон : Limited
Основные цвета : BT.709
Характеристики трансфера : BT.709
Коэффициенты матрицы : BT.709

Аудио
Идентификатор : 1
Формат : FLAC
Формат/Информация : Free Lossless Audio Codec
Идентификатор кодека : A_FLAC
Продолжительность : 24 м. 2 с.
Вид битрейта : Переменный
Битрейт : 652 Кбит/сек
Каналы : 2 канала
Расположение каналов : Front: L R
Частота : 48,0 КГц
Частота кадров : 11,719 кадров/сек (4096 SPF)
Битовая глубина : 16 бит
Размер потока : 112 Мбайт (2%)
Библиотека кодирования : libFLAC 1.2.1 (UTC 2007-09-17)
Язык : Japanese
Default : Да
Forced : Нет

Меню
00:00:00.000 : en:00:00:00.000
00:02:36.615 : en:00:02:36.615
00:12:46.015 : en:00:12:46.015
00:22:25.970 : en:00:22:25.970
00:23:56.018 : en:00:23:56.018
...5427964
--HDTVRip

...5428758
--WEBRip

Эта раздача - BDRemux


Трекер:  [ 07-Мар-2018 01:01 ]

  

Скачать .torrent

Размер .torrent файла 114 KB


Размер: 79 GB
Хэш (hash) релиза: 45b51e56cccd9e0d04540cfaf1612f1cc301638d
Подписка на обновления:

Торренты, похожие на Добро пожаловать в класс превосходства Youkoso Jitsuryoku Shijou Shugi no Kyoushitsu e скачать торрент

Форум Название Автор Размер S L Добавлен
Аниме | Rips ·· Добро пожаловать в класс превосходства / Youkoso Jitsuryoku Shijou Shugi no Kyoushitsu e / Classroom of the Elite [TV] [12 из 12] [Без хардсаба] [RUS(int), JAP+SUB] [2017, романтика, драма, BDRip] [HWP] Galfimbul 30698777712.86 GB 0 0 1520789502

20:31

11-Мар-18

Аниме | HD Rips ·· Добро пожаловать в класс превосходства / Youkoso Jitsuryoku Shijou Shugi no Kyoushitsu e [TV] [1 из 12] [Без хардсаба] [JAP+SUB] [2017, комедия. романтика, школа, WEBRip] [1080p] Galfimbul 574478256548 MB 0 0 1500199431

13:03

16-Июл-17

Аниме | Rips ·· Добро пожаловать в класс превосходства / Youkoso Jitsuryoku Shijou Shugi no Kyoushitsu e [TV] [01 из 12] [Без хардсаба] [RUS(ext), JAP, SUB] [2017, Романтика, Комедия, Школа, HDTVRip] [720p] Galfimbul 382942509365 MB 0 0 1499999474

05:31

14-Июл-17

Аниме | HD Rips ·· Добро пожаловать в класс превосходства / Youkoso Jitsuryoku Shijou Shugi no Kyoushitsu e [TV] [01 из 12] [Без хардсаба] [JAP+SUB] [2017, комедия. романтика, школа, HDTVRip] [720p] Galfimbul 348285211332 MB 0 0 1499932921

11:02

13-Июл-17

Еще никто не оставлял запись к записи скачать торрент Добро пожаловать в класс превосходства Youkoso Jitsuryoku Shijou Shugi no Kyoushitsu e . Будь первым!

!Обратная связь