2x13 Ransom | • Crossing Lines 6.1 | StarGate SG1

Скачать через торрент Вечно Вялый Танака бесплатно Аниме Все серии на русском torrent

Статистика раздачи
Размер:  85.11 GB   |    Зарегистрирован:  4 месяца 10 дней   |    .torrent скачан:  34 раза   |   
Раздают:  1  
   
загрузка...
 
Автор Сообщение

Galfimbul

avatar Galfimbul


Вечно Вялый Танака / Tanaka-kun Wa Itsumo Kedaruge

Год выпуска:2016
Страна: Япония
Жанр: комедия, повседневность
Тип: TV+Special
Продолжительность: 12 эп. по 24 мин., 7 спешалов по ~5 мин., 25 спешалов по ~30 сек.
Озвучка:

Двухголосая (муж/жен) от Soer & MezIdA (DeadLine Studio)

Русские субтитры: есть (отдельным файлом, формат .ass)
Перевод:

K. Osaka, Esito [Anderground Team]

Хардсаб: Нет
Режиссер: Кавацура Синъя
Студия: Silver Link

Описание: Танака — обычный школьник, который не проявляет интереса ни к учебе, ни к спорту, а на уроках всегда спит. Но у юноши есть друг Ота, который во всем проявляет активность и успеваемость. Несмотря на то, что друзья — полные противоположности, они продолжают дружить. До чего же доведет эта дружба?

© Whitestrake (Shikimori)

Качество: Blu-Ray Remux
Формат: MKV
Видео кодек: AVC
Аудио кодек: FLAC
Видео: 1920x1080 (16:9) 23,976 fps ~32,4 Mbps 8bit
Аудио:
Jap FLAC, 48000Hz, ~1268 Kbps, 2ch
RUS (ext) AAC, 48000Hz, ~192 Kbps, 2ch

Чаптеры присутствуют.
01. Танака и Ота
02. Обучение
03. Такая разная Этидзен
04. Тайна Сираиси
05. Один день из жизни Танаки
06. Болезнь Танаки
07. Валентинка Танаки
08. Испытание Оты
09. Добро пожаловать в вакдак
10. Лето Танаки
11. Культурный фестиваль Танаки
12. Счастье Танаки
Sp 1 01. Один день Танаки
Sp 1 02. Битва за выпечку
Sp 1 03. Мысли Танаки
Sp 1 04. Сон
Sp 1 05. Чай с соломинкой
Sp 1 06. Сообщение
Sp 1 07. Ведутся работы
Sp 1 08. Игры
Sp 1 09. Лапша быстрого приготовления
Sp 1 10. Мороженное
Sp 1 11. Кукурузный суп
Sp 1 12. Поиск пути Танаки
Sp 1 13. Нести новыми способами
Sp 1 14. Овцы
Sp 1 15. Массаж
Sp 1 16. Пульт
Sp 1 17. Волшебная рука
Sp 1 18. Пудинг
Sp 1 19. Тележка
Sp 1 20. Сообщения
Sp 1 21. Бирка
Sp 1 22. Тайфун
Sp 1 23. Уборка
Sp 1 24. Бодибилдинг
Sp 1 25. Женская сила
Sp 1 26. Чаинка
Sp 1 27. Темп
Sp 1 28. Туалет
Sp 1 29. Софтбол
Sp 1 30. Сон
Sp 1 31. Суперспособности
Sp 1 32. Длина юбки
Sp 1 33. Жвачка
Sp 1 34. Идея
Sp 1 35. Дыхание животом
Sp 2 1. Танака против Оты - Битва без чести и гуманности
Sp 2 2. Разве не здорово быть маленькой?
Sp 2 3. Рецепт счастья Оты
Sp 2 4. Гадание Сираиси
Sp 2 5. Сражение с Этидзен
Sp 2 6. Непростые клиенты Сайодзи
Sp 2 7. Уроки готовки от Оты
Общее
Уникальный идентификатор : 59933422456883744490374021230082707421 (0x2D16C1DE46FC7B0BCCFF6DA836F0CFDD)
Полное имя : Z:\Anime Release - working\Tanaka\[anti-raws]Tanaka-kun wa Itsumo Kedaruge ep.01[BDRemux].mkv
Формат : Matroska
Версия формата : Version 4 / Version 2
Размер файла : 5,87 Гбайт
Продолжительность : 24 м. 1 с.
Режим общего битрейта : Переменный
Общий поток : 35,0 Мбит/сек
Дата кодирования : UTC 2018-03-05 18:45:14
Программа кодирования : mkvmerge v20.0.0 ('I Am The Sun') 64-bit
Библиотека кодирования : libebml v1.3.5 + libmatroska v1.4.8

Видео
Идентификатор : 2
Формат : AVC
Формат/Информация : Advanced Video Codec
Профиль формата : [email protected]
Настройки формата : CABAC / 4 Ref Frames
Параметр CABAC формата : Да
Параметр RefFrames формата : 4 кадра
Параметр GOP формата : M=3, N=12
Идентификатор кодека : V_MPEG4/ISO/AVC
Продолжительность : 24 м. 1 с.
Вид битрейта : Переменный
Битрейт : 33,7 Мбит/сек
Максимальный битрейт : 39,0 Мбит/сек
Ширина : 1920 пикселей
Высота : 1080 пикселей
Соотношение сторон : 16:9
Режим частоты кадров : Постоянный
Частота кадров : 23,976 (24000/1001) кадра/сек
Цветовое пространство : YUV
Субдискретизация насыщенности : 4:2:0
Битовая глубина : 8 бит
Тип развёртки : Прогрессивная
Бит/(Пиксели*Кадры) : 0.678
Размер потока : 5,66 Гбайт (96%)
Default : Нет
Forced : Нет

Аудио
Идентификатор : 1
Формат : FLAC
Формат/Информация : Free Lossless Audio Codec
Идентификатор кодека : A_FLAC
Продолжительность : 24 м. 1 с.
Вид битрейта : Переменный
Битрейт : 1268 Кбит/сек
Каналы : 2 канала
Расположение каналов : Front: L R
Частота : 48,0 КГц
Частота кадров : 11,719 кадров/сек (4096 SPF)
Битовая глубина : 24 бит
Размер потока : 218 Мбайт (4%)
Библиотека кодирования : libFLAC 1.2.1 (UTC 2007-09-17)
Язык : Japanese
Default : Да
Forced : Нет

Меню
00:00:00.000 : en:00:00:00.000
00:02:18.013 : en:00:02:18.013
00:04:06.997 : en:00:04:06.997
00:09:57.013 : en:00:09:57.013
00:14:29.035 : en:00:14:29.035
00:22:04.114 : en:00:22:04.114
00:23:31.076 : en:00:23:31.076
00:23:48.093 : en:00:23:48.093
...5206942
...5301641
--WEBRip

...5514674
--BDRip

Эта раздача - BDRemux


Трекер:  [ 07-Мар-2018 01:01 ]

  

Скачать .torrent

Размер .torrent файла 137 KB


Размер: 85.11 GB
Хэш (hash) релиза: 97033469cf56d99a8efa4beac9f9f0d53e264c83
Подписка на обновления:

Торренты, похожие на Вечно Вялый Танака скачать торрент

Форум Название Автор Размер S L Добавлен
Аниме | HD Rips ·· Вечно Вялый Танака (ТВ) / Tanaka-kun Wa Itsumo Kedaruge / Tanaka-kun Wa Kyou Mo Kedaruge [TV+Special] [12+42 из 12+42] [JAP, SUB] & [12+35 из 12+42] [RUS(ext)] [Без хардсаба] [2016, комедия, повседневность, BDRip] [1080p] Galfimbul 88795649218.27 GB 0 0 1517522500

01:01

2-Фев-18

Еще никто не оставлял запись к записи скачать торрент Вечно Вялый Танака . Будь первым!

!Обратная связь