Big Little Lies | Big Love | Big Time in Hollywood FL

Скачать через торрент Код Гиасс: Нанналли в стране чудес Code Geass: Hangyaku no Lelouch - Nunnally in Wonderland бесплатно Аниме Все серии на русском torrent

Статистика раздачи
Размер:  7.19 GB   |    Зарегистрирован:  3 месяца 14 дней   |    .torrent скачан:  34 раза   |   
Раздают:  1  
   
загрузка...
 
Автор Сообщение

Galfimbul

avatar Galfimbul


Код Гиасс: Нанналли в стране чудес / Code Geass: Hangyaku no Lelouch - Nunnally in Wonderland

Год выпуска: 2012
Страна: Япония
Жанр: приключения
Тип: OVA
Продолжительность: 28 мин.
Озвучка:

Одноголосая (муж) от Ryc99

Русские субтитры: есть (отдельным файлом, формат .ass)
Перевод:

Brauny74, Chris Foster [Rinne-Subs]

Хардсаб: Нет
Режиссер: Баба Макото
Студия: SUNRISE

Описание: Нанали оказывается тайной фанаткой Алисы в Стране Чудес. Лелуш использует на ней Гиасс, чтобы та смогла почувствовать себя на месте Алисы. Вместе они отправляются в настоящее приключение, по дороге встречая множество полюбившихся героев оригинального сериала, в роли персонажей романа Льюиса Кэрролла.

Качество: Blu-Ray Remux
Формат: MKV
Видео кодек: AVC
Аудио кодек: FLAC
Видео: 1920x1080 (16:9) 23,976 fps ~38,4 Mbps
Jap FLAC, 48000Hz, ~1523 Kbps, 2ch
RUS (ext) AC3, 48000Hz, ~192 Kbps, 2ch

Чаптеры присутствуют.
Общее
Уникальный идентификатор : 209128629166955526266709570718037774415 (0x9D54B57B65793DEF361A5D9FA551104F)
Полное имя : M:\pub\Video\Anime\Code Geass\Nunnally in Wonderland\[anti-raws]Code Geass - Hangyaku no Lelouch - Nunnally in Wonderland[BDRemux].mkv
Формат : Matroska
Версия формата : Version 4 / Version 2
Размер файла : 7,15 Гбайт
Продолжительность : 28 м. 13 с.
Режим общего битрейта : Переменный
Общий поток : 36,3 Мбит/сек
Дата кодирования : UTC 2018-02-21 19:41:37
Программа кодирования : mkvmerge v20.0.0 ('I Am The Sun') 64-bit
Библиотека кодирования : libebml v1.3.5 + libmatroska v1.4.8

Видео
Идентификатор : 2
Формат : AVC
Формат/Информация : Advanced Video Codec
Профиль формата : [email protected]
Настройки формата : CABAC / 4 Ref Frames
Параметр CABAC формата : Да
Параметр RefFrames формата : 4 кадра
Идентификатор кодека : V_MPEG4/ISO/AVC
Продолжительность : 28 м. 13 с.
Вид битрейта : Переменный
Битрейт : 34,8 Мбит/сек
Максимальный битрейт : 39,0 Мбит/сек
Ширина : 1920 пикселей
Высота : 1080 пикселей
Соотношение сторон : 16:9
Режим частоты кадров : Постоянный
Частота кадров : 23,976 (24000/1001) кадра/сек
Цветовое пространство : YUV
Субдискретизация насыщенности : 4:2:0
Битовая глубина : 8 бит
Тип развёртки : Прогрессивная
Бит/(Пиксели*Кадры) : 0.699
Размер потока : 6,85 Гбайт (96%)
Default : Нет
Forced : Нет

Аудио
Идентификатор : 1
Формат : FLAC
Формат/Информация : Free Lossless Audio Codec
Идентификатор кодека : A_FLAC
Продолжительность : 28 м. 0 с.
Вид битрейта : Переменный
Битрейт : 1523 Кбит/сек
Каналы : 2 канала
Расположение каналов : Front: L R
Частота : 48,0 КГц
Частота кадров : 11,719 кадров/сек (4096 SPF)
Битовая глубина : 24 бит
Размер потока : 305 Мбайт (4%)
Библиотека кодирования : libFLAC 1.2.1 (UTC 2007-09-17)
Язык : Japanese
Default : Да
Forced : Нет

Меню
00:00:00.000 : en:00:00:00.000
00:01:31.300 : en:00:01:31.300
00:02:35.822 : en:00:02:35.822
00:04:51.875 : en:00:04:51.875
00:08:03.983 : en:00:08:03.983
00:10:07.273 : en:00:10:07.273
00:11:56.215 : en:00:11:56.215
00:15:36.269 : en:00:15:36.269
00:17:52.738 : en:00:17:52.738
00:19:21.869 : en:00:19:21.869
00:20:33.232 : en:00:20:33.232
00:23:34.705 : en:00:23:34.705
00:25:53.552 : en:00:25:53.552
00:26:55.280 : en:00:26:55.280
00:28:00.679 : en:00:28:00.679
...4151532
...4151357
...4143579
--BDRip

Эта раздача - BDRemux


Трекер:  [ 07-Мар-2018 01:01 ]

  

Скачать .torrent

Размер .torrent файла 10 KB


Размер: 7.19 GB
Хэш (hash) релиза: c81ad0d6a45f0ad9749f21a0b84759ae562e750b
Подписка на обновления:

Еще никто не оставлял запись к записи скачать торрент Код Гиасс: Нанналли в стране чудес Code Geass: Hangyaku no Lelouch - Nunnally in Wonderland . Будь первым!

!Обратная связь