The Real Housewives of New York City 10 | Jack and Jill 2011 720p BDRip x264 AC3-Zoo | Linzie Gray

Скачать через торрент Созданный в Бездне Made in Abyss бесплатно Аниме Все серии на русском torrent

Статистика раздачи
Размер:  5.25 GB   |    Зарегистрирован:  3 месяца 15 дней   |    .torrent скачан:  38 раз   |   
Раздают:  1  
   
загрузка...
 
Автор Сообщение

Galfimbul

avatar Galfimbul


Созданный в Бездне / Made in Abyss / メイドインアビス



Страна: Япония
Год выпуска: 2017 г.
Жанр: Фантастика, фэнтези, приключения, драма
Тип: TV
Продолжительность: 12 эпизодов по ~24 минуты, 13й эпизод 48 минут
Режиссер: Кодзима Масаюки
Студия: Cinema Citrus



Перевод:

Русские субтитры: YakuSub Studio
Переводчик: Lulu
Редактор: Aero
Оформление: Helge

Озвучка:
- многоголосая: KANSAI Studio



Описание : Огромная система пещер, известная как Бездна - единственное неисследованное место на Земле. Никто не знает, насколько глубоко под землю уходит этот невероятный карьер, населённый странными, но удивительными существами, сохранивший загадочные древние реликвии, предназначение которых невозможно разгадать современному человеку. Многие поколения отважных искателей приключений бросали вызов глубинам Бездны. Со временем, таких людей стали называть Исследователями глубин.
В Оус, городе на краю Бездны, живёт малышка сиротка по имени Рико, которая мечтает стать великой исследовательницей глубин, такой же, какой была её мама, и разгадывать великие тайны карьера. Гуляя однажды по мрачным пещерам, она находит мальчика, который оказался совсем не мальчиком, а роботом...



world-art | AniDB | MyAnimeList | Офиц. Сайт



Anime OST

Автор рипа и релиза : Страник 2.0

Качество: BDRip (исходник: BDRemux, спасибо antiBILLotic)
Тип релиза: Полухардсаб (Надписи)
Формат видео: AVI
Наличие линковки: Нет
Видео: XviD, 720x400 (16:9), 1868 Кбит/с, 23.976 fps, 8bit
Аудио 1: Русский, AC3, 192 Кбит/с, 48.0 Hz, 2 ch (в составе контейнера)
Аудио 2: Японский, AC3, 192 Кбит/с, 48.0 Hz, 2 ch (в составе контейнера)
Субтитры (srt): Русские (внешним файлом)




01. Город Великой Впадины
02. Фестиваль Возрождения
03. Отбытие
04. На Краю Бездны
05. Мусоросжигатель
06. Лагерь Искателей
07. Неизменная правительница
08. Тренировка на выживание
09. Большой разлом
10. Яд и проклятие
11. Наначи
12. Истинная природа Проклятия
13. Претенденты
General
Complete name : E:/Torrent_2/Made in Abyss (2017, XviD BDRip, RUS JAP+SUB) [Stranik 2.0]/01. The City of the Great Pit.avi
Format : AVI
Format/Info : Audio Video Interleave
File size : 384 MiB
Duration : 23mn 42s
Overall bit rate : 2 265 Kbps
Writing application : VirtualDubMod 1.5.10.3 (build 2550/release)
Writing library : VirtualDubMod build 2550/release

Video #0
ID : 0
Format : MPEG-4 Visual
Format profile : Advanced [email protected]
Format settings, BVOP : 2
Format settings, QPel : No
Format settings, GMC : No warppoints
Format settings, Matrix : Custom
Codec ID : XVID
Codec ID/Hint : XviD
Duration : 23mn 42s
Bit rate : 1 867 Kbps
Width : 720 pixels
Height : 400 pixels
Display aspect ratio : 16:9
Frame rate : 23.976 fps
Color space : YUV
Chroma subsampling : 4:2:0
Bit depth : 8 bits
Scan type : Progressive
Compression mode : Lossy
Bits/(Pixel*Frame) : 0.270
Stream size : 317 MiB (82%)
Writing library : XviD 67

Audio #1
ID : 1
Format : AC-3
Format/Info : Audio Coding 3
Mode extension : CM (complete main)
Format settings, Endianness : Big
Codec ID : 2000
Duration : 23mn 42s
Bit rate mode : Constant
Bit rate : 192 Kbps
Channel(s) : 2 channels
Channel positions : Front: L R
Sampling rate : 48.0 KHz
Bit depth : 16 bits
Compression mode : Lossy
Stream size : 32.6 MiB (8%)
Alignment : Split accross interleaves
Interleave, duration : 42 ms (1.00 video frame)
Interleave, preload duration : 500 ms

Audio #2
ID : 2
Format : AC-3
Format/Info : Audio Coding 3
Mode extension : CM (complete main)
Format settings, Endianness : Big
Codec ID : 2000
Duration : 23mn 42s
Bit rate mode : Constant
Bit rate : 192 Kbps
Channel(s) : 2 channels
Channel positions : Front: L R
Sampling rate : 48.0 KHz
Bit depth : 16 bits
Compression mode : Lossy
Stream size : 32.6 MiB (8%)
Alignment : Split accross interleaves
Interleave, duration : 42 ms (1.00 video frame)
Interleave, preload duration : 500 ms
AniPlague- ...5464715 - BDRip, альтернативная озвучка, воспроизводится на железных плеерах
Моя максимальная скорость отдачи 100КБ/c
Раздаю с 7:00 до 00:00 по Москве

Трекер:  [ 06-Мар-2018 12:01 ]

  

Скачать .torrent

Размер .torrent файла 15 KB


Размер: 5.25 GB
Хэш (hash) релиза: bee5fb9227e9c34ac4701cdb5e28e5abae94e63e
Подписка на обновления:

Торренты, похожие на Созданный в Бездне Made in Abyss скачать торрент

Форум Название Автор Размер S L Добавлен
Аниме | Rips ·· Созданный в Бездне / Made in Abyss / Сделанный в Бездне [TV] [13 из 13] [Без хардсаба] [RUS(int), JUP+SUB] [2017, комедия, романтика, драма, школа, сёнэн, HDTVRip] [720p] [MVO] (AniPlague) Galfimbul 55472242525.17 GB 0 0 1507683704

04:01

11-Окт-17

Аниме | Rips ·· Созданный в Бездне / Made in Abyss (Кодзима Масаюки) [TV] [13 из 13] [без хардсаба] [RUS(ext), JAP+SUB] [2017, приключения, драма, BDRip] [720p] Galfimbul 77778191897.24 GB 0 0 1517825057

13:04

5-Фев-18

Аниме | Rips ·· Созданный в Бездне / Made in Abyss [TV] [1-2 из 12] [Без хардсаба] [RUS(int)] [2017, Сэйнэн, Драма, Приключения, Фантастика, фэнтези, WEBRip] Galfimbul 1014937691968 MB 0 0 1505458905

10:01

15-Сен-17

Аниме | HD Rips ·· Созданный в Бездне / Made in Abyss [TV] [01 из 12] [Без хардсаба] [RUS(ext), JAP+SUB] [2017, Фантастика, фэнтези, приключения, драма, WEBRip] [1080p] Galfimbul 578993429552 MB 0 0 1499607066

16:31

9-Июл-17

Аниме | HD Rips ·· Созданный в Бездне / Made in Abyss (Кодзима Масаюки) [TV] [1 из 12] [Без хардсаба] [JAP+SUB] [2017, Фантастика, фэнтези, приключения, драма, HDTVRip] [720p] Galfimbul 328952125314 MB 0 0 1499452279

21:31

7-Июл-17

Еще никто не оставлял запись к записи скачать торрент Созданный в Бездне Made in Abyss . Будь первым!

!Обратная связь