Golden Tambourine | Chloe Rose | Robert Downey Jr.

Скачать через торрент Счастливый день Фильм бесплатно в хорошем качестве torrent

Скачивайте на UnionPeer.org фильмы через торрент без регистрации. Новинки кино в хорошем качестве через торрент. На UnionPeer.org можно скачать через торрент фильмы 2014 и 2015 годов. Самые новые фильмы.

Скачать торрент Счастливый день бесплатно через .torrent фильм мультфильм сериал

Статистика раздачи
Размер:  94 MB   |    Зарегистрирован:  3 месяца 17 дней   |    .torrent скачан:  23 раза   |   
Раздают:  1  
   
загрузка...
 
Автор Сообщение

Galfimbul

avatar Galfimbul


Счастливый день

Страна: СССР (Таджикская республика)
Жанр: мультфильм
Продолжительность: 00:09:25
Год выпуска: 1983

Режиссёр: Мунавар Мансурходжаев

Описание: Всех детей уже забрали из детского сада, а девочке по имени Рано воспитательница сказала, что папа придёт позднее. Рано ждала долго, уже и дворник ушёл домой. Рано даже заснула на качелях и увидела странный сон, а потом пришёл папа и рассказал, что сегодня - счастливый день.

Качество: WEBRip
Формат: AVI
Видео: 1255 kbps, 640х480 (4:3), 25.000 fps, MPEG-4 Visual (XviD)
Аудио: 128 kbps, 44.1 kHz, 2 channels, MPEG Audio (MP3)
Субтитры: отсутствуют
GeneralComplete name : Счастливый день. 1983.aviFormat : AVIFormat/Info : Audio Video InterleaveFile size : 93.9 MiBDuration : 9mn 25sOverall bit rate : 1 393 KbpsWriting application : VirtualDubMod 1.5.10.2 (build 2540/release)Writing library : VirtualDubMod build 2540/release

VideoID : 0Format : MPEG-4 VisualFormat profile : Advanced [email protected] settings, BVOP : 2Format settings, QPel : NoFormat settings, GMC : No warppointsFormat settings, Matrix : Default (H.263)Codec ID : XVIDCodec ID/Hint : XviDDuration : 9mn 25sBit rate : 1 255 KbpsWidth : 640 pixelsHeight : 480 pixelsDisplay aspect ratio : 4:3Frame rate : 25.000 fpsColor space : YUVChroma subsampling : 4:2:0Bit depth : 8 bitsScan type : ProgressiveCompression mode : LossyBits/(Pixel*Frame) : 0.163Stream size : 84.6 MiB (90%)Writing library : XviD 73

AudioID : 1Format : MPEG AudioFormat version : Version 1Format profile : Layer 3Codec ID : 55Codec ID/Hint : MP3Duration : 9mn 25sBit rate mode : ConstantBit rate : 128 KbpsChannel(s) : 2 channelsSampling rate : 44.1 KHzCompression mode : LossyStream size : 8.63 MiB (9%)Alignment : Split accross interleavesInterleave, duration : 40 ms (1.00 video frame)Interleave, preload duration : 500 ms


Трекер:  [ 04-Мар-2018 05:36 ]

  

Скачать .torrent

Размер .torrent файла 15 KB


Размер: 94 MB
Хэш (hash) релиза: 2cfef0ddd36e4e171eea64c10230dfa6f602653b
Подписка на обновления:

Торренты, похожие на Счастливый день скачать торрент

Форум Название Автор Размер S L Добавлен
Зарубежные фильмы до 2016 ·· День удачи / Счастливые дни / Счастливый день / Lucky Day (Пенелопа Байтенхайс / Penelope Buitenhuis) [2002, США, триллер, драма, криминал, детектив, SATRip] MVO Galfimbul 14622658561.36 GB 0 0 1416161096

21:04

16-Ноя-14

Зарубежные фильмы 2016-2018 (Новинки зарубежного кино) ·· Самый счастливый день в жизни Олли Мяки / The Happiest Day in the Life of Olli Maki / Hymyileva mies (Юхо Куосманен / Juho Kuosmanen) [2016, Финляндия, Швеция, Германия, драма, спорт, HDRip] VO + Sub Rus + Original Fin Galfimbul 14550390071.36 GB 0 0 1488436200

09:30

2-Мар-17

Зарубежные фильмы 2016-2018 (Новинки зарубежного кино) ·· Самый счастливый день в жизни Олли Мяки / Hymyilev mies (Юхо Куосманен) [2016, драма, спорт, HDRip] Galfimbul 15628372551.46 GB 0 0 1488276888

13:14

28-Фев-17

Зарубежные фильмы до 2016 ·· Твой счастливый день / Your Lucky Day (Дэн Браун / Dan Brown) [2010, США, Короткий метр, триллер, драма, WEB-DL 1080p] VO (Антон Прокофьев) + Original Eng Galfimbul 494389240471 MB 0 0 1356096540

16:29

21-Дек-12

Зарубежные фильмы до 2016 ·· Счастливый случай / Cout de chance (Дени Мальваль / Denis Malleval) [2013, Франция, комедия, драма, DVB] Original (Fra) + Sub (Rus, Eng, Fre, Deu) Galfimbul 23258575592.17 GB 0 0 1503127808

10:30

19-Авг-17

Зарубежные фильмы до 2016 ·· Счастливый случай / Coût de chance (Дени Мальваль / Denis Malleval) [2013, Франция, комедия, драма, DVB-AVC] VO + Original Fre Galfimbul 13754539491.28 GB 0 0 1447791870

23:24

17-Ноя-15

Зарубежные фильмы до 2016 ·· Счастливый случай / Cout de chance (Дени Мальваль / Denis Malleval) [2013, Франция, комедия, драма, DVB] Original (Fra) + Sub (rus) Galfimbul 24115302402.25 GB 0 0 1428781555

22:45

11-Апр-15

Еще никто не оставлял запись к записи скачать торрент Счастливый день . Будь первым!

!Обратная связь