Dinotrux Supercharged Season 2 | 원영 prelude, | Hex: La malédiction

Скачать через торрент Навсикая из Долины ветров Kaze no tani no Naushika бесплатно Аниме Все серии на русском torrent

Статистика раздачи
Размер:  8.26 GB   |    Зарегистрирован:  3 месяца 16 дней   |    .torrent скачан:  15 раз   |   
Раздают:  1  
   
загрузка...
 
Автор Сообщение

Galfimbul

avatar Galfimbul


Навсикая из Долины ветров / Kaze no tani no Naushika / Nausicaa of the Valley of the Wind / Наусика из Долины ветров
Страна: Япония
Год выпуска: 1984
Жанр: приключения, фантастика, драма
Тип: Movie
Продолжительность: 117 мин.
Режиссер: Миядзаки Хаяо
Студия: Ghibli / Top Craft
Описание: В будущем человечество, столетиями безоглядно эксплуатировавшее природу, пало жертвой своей гордыни. Землю постигла ужасная экологическая катастрофа, процветающие когда-то промышленные цивилизации обратились в прах, а поверхность планеты покрыло гигантское море Леса, испускающее в атмосферу ядовитые споры своих растений. Оставшимся в живых людям приходится жить в тени Леса и его чудовищных насекомообразных обитателей, пытаясь не допустить распостранения вредоносной растительности. Мирная Долина Ветров - одно из царств, образовавшихся на руинах прежних государств. Жители Долины обожают своего доброго правителя и его дочь Навсикаю, необычную девочку, находящую общий язык с исполинскими насекомыми Леса, странными порождениями нарушенной экосистемы. Но безмятежное существование Долины Ветров нарушается, когда маленькая страна становится пешкой в играх крупных воинственных соседей, сражающихся за остатки драгоценных природных ресурсов планеты. Тем не менее, скрытому потенциалу Навсикаи ещё предстоит раскрыться, и юной принцессе, возможно, удастся изменить судьбы мира...

Доп. информация: Фильм основан на двух первых томах манги "Kaze no Tani no Naushika". Финал фильма отличается от событий, описанных в манге, т.к. графический роман был закончен лишь спустя ещё 10 лет.
Несмотря на то, что фильм был снят до основания студии "Гибли", он входит в официальную коллекцию и по праву является её началом, т.к. при его создании впервые вместе собрались отцы-основатели будущей студии: автором оригинальной манги и режиссёром стал Хаяо Миязаки, продюсером выступил его давний друг и коллега - режиссёр Исао Такахата, идея экранизации принадлежит будущему ведущему продюсеру студии Тосио Сузуки, который также вынес на своих плечах рекламную кампанию фильма (прежде всего при поддержке издательства "Токума" и журнала "Анимаг" стали возможны экранизация и последующее основание новой студии), также это был первый фильм Миязаки, музыку к которому написал Дзё Хисайси.
Вслед за выходом фильма студия Top Craft была реорганизована и получила новое имя - Studio Ghibli.
Качество: BDRip 720p
Тип релиза: Без хардсаба
Формат видео: MKV
Релиз/Автор рипа: мой
Видео: AVC, 7990 Кбит/сек, 1280 x 688 (1.860), 23.976 fps
Аудио: AC-3, 192 Кбит/сек, 2 канала, 48,0 КГц Язык Русский (в составе контейнера) ; дубляж (Ruscico)
Аудио 2: DTS, 1536 Кбит/сек, 2 канала, 48,0 КГц Язык Японский (в составе контейнера)
Аудио 3: AC-3, 192 Кбит/сек, 2 канала, 48,0 КГц Язык Русский (внешним файлом) ; многоголосый закадровый Kinomania
Аудио 4: AC-3, 192 Кбит/сек, 2 канала, 48,0 КГц Язык Русский (внешним файлом) ; двухголосый закадровый Tycoon
Субтитры: SRT, внешние, русский - (Ruscico)
Субтитры 2: SRT, внешние, русский - (Alknave)
Субтитры 3: SRT, внешние, русский - (Tycoon)
Формат : MatroskaВерсия формата : Version 4 / Version 2Размер файла : 7,95 ГбайтПродолжительность : 1 ч. 57 м.Общий поток : 9721 Кбит/секНазвание фильма : Nausicaa of the Valley of the Wind (JPN MGVC Blu-ray / Hayao Miyazaki Collection)Дата кодирования : UTC 2018-03-03 15:34:18Программа кодирования : mkvmerge v20.0.0 ('I Am The Sun') 64-bitБиблиотека кодирования : libebml v1.3.5 + libmatroska v1.4.8Обложка : YesAttachments : Cover.jpg

ВидеоИдентификатор : 1Формат : AVCФормат/Информация : Advanced Video CodecПрофиль формата : [email protected]Параметр CABAC формата : ДаПараметр RefFrames формата : 9 кадровИдентификатор кодека : V_MPEG4/ISO/AVCПродолжительность : 1 ч. 57 м.Битрейт : 7990 Кбит/секШирина : 1280 пикселейВысота : 688 пикселейСоотношение сторон : 1,85:1Режим частоты кадров : ПостоянныйЧастота кадров : 23,976 (24000/1001) кадра/секЦветовое пространство : YUVСубдискретизация насыщенности : 4:2:0Битовая глубина : 8 битТип развёртки : ПрогрессивнаяБит/(Пиксели*Кадры) : 0.378Размер потока : 6,53 Гбайт (82%)Библиотека кодирования : x264 core 152 r2851 ba24899Настройки программы : cabac=1 / ref=9 / deblock=1:0:0 / analyse=0x3:0x133 / me=umh / subme=10 / psy=1 / psy_rd=1.00:0.00 / mixed_ref=1 / me_range=24 / chroma_me=1 / trellis=2 / 8x8dct=1 / cqm=0 / deadzone=21,11 / fast_pskip=1 / chroma_qp_offset=-2 / threads=6 / lookahead_threads=1 / sliced_threads=0 / nr=0 / decimate=1 / interlaced=0 / bluray_compat=0 / constrained_intra=0 / bframes=8 / b_pyramid=2 / b_adapt=2 / b_bias=0 / direct=3 / weightb=1 / open_gop=0 / weightp=2 / keyint=240 / keyint_min=23 / scenecut=40 / intra_refresh=0 / rc_lookahead=60 / rc=2pass / mbtree=1 / bitrate=7990 / ratetol=1.0 / qcomp=0.60 / qpmin=0 / qpmax=69 / qpstep=4 / cplxblur=20.0 / qblur=0.5 / vbv_maxrate=40000 / vbv_bufsize=30000 / nal_hrd=none / filler=0 / ip_ratio=1.40 / aq=1:1.00Default : ДаForced : Нет

Аудио #1Идентификатор : 2Формат : AC-3Формат/Информация : Audio Coding 3Параметр Endianness формата : BigИдентификатор кодека : A_AC3Продолжительность : 1 ч. 56 м.Вид битрейта : ПостоянныйБитрейт : 192 Кбит/секКаналы : 2 каналаРасположение каналов : Front: L RЧастота : 48,0 КГцЧастота кадров : 31,250 кадров/сек (1536 SPF)Битовая глубина : 16 битМетод сжатия : С потерямиРазмер потока : 161 Мбайт (2%)Заголовок : RuscicoЯзык : RussianServiceKind/String : Complete MainDefault : ДаForced : Нет

Аудио #2Идентификатор : 3Формат : DTSФормат/Информация : Digital Theater SystemsРежим : 16Параметр Endianness формата : BigИдентификатор кодека : A_DTSПродолжительность : 1 ч. 57 м.Вид битрейта : ПостоянныйБитрейт : 1536 Кбит/секКаналы : 2 каналаРасположение каналов : Front: L RЧастота : 48,0 КГцЧастота кадров : 93,750 кадра/сек (512 SPF)Битовая глубина : 24 битМетод сжатия : С потерямиРазмер потока : 1,26 Гбайт (16%)Заголовок : JapaneseЯзык : JapaneseDefault : НетForced : Нет

Меню00:00:00.000 : en:00:00:00.00000:01:59.995 : en:00:01:59.99500:07:43.046 : en:00:07:43.04600:12:10.104 : en:00:12:10.10400:18:39.452 : en:00:18:39.45200:23:34.747 : en:00:23:34.74700:28:38.717 : en:00:28:38.71700:33:30.175 : en:00:33:30.17500:38:15.251 : en:00:38:15.25100:44:57.111 : en:00:44:57.11100:49:53.032 : en:00:49:53.03200:54:40.611 : en:00:54:40.61100:58:27.421 : en:00:58:27.42101:01:19.426 : en:01:01:19.42601:07:53.653 : en:01:07:53.65301:13:51.177 : en:01:13:51.17701:18:39.131 : en:01:18:39.13101:24:27.896 : en:01:24:27.89601:30:49.861 : en:01:30:49.86101:34:39.340 : en:01:34:39.34001:40:10.129 : en:01:40:10.12901:46:06.860 : en:01:46:06.86001:49:44.036 : en:01:49:44.03601:52:08.930 : en:01:52:08.93001:55:04.105 : en:01:55:04.105
...5164885
...501859
...354063
[HWP]


Трекер:  [ 03-Мар-2018 21:01 ]

  

Скачать .torrent

Размер .torrent файла 42 KB


Размер: 8.26 GB
Хэш (hash) релиза: 3ed2e95aff9eb7958463790ef9d58028e48c0b75
Подписка на обновления:

Торренты, похожие на Навсикая из Долины ветров Kaze no tani no Naushika скачать торрент

Форум Название Автор Размер S L Добавлен
Аниме | HD Rips ·· Навсикая из Долины ветров / Kaze no tani no Naushika / Nausicaa of the Valley of the Wind / Наусика из Долины ветров [Movie] [Без хардсаба] [JAP, RUS(ext)] [1984, фантастика, фэнтези, драма, BDRip] [1080p] Galfimbul 75177997117 GB 0 0 1498239068

20:31

23-Июн-17

Аниме | HD Rips ·· Навсикая из Долины ветров / Nausicaa of the Valley of the Wind / Kaze no tani no Naushika / Наусика из Долины ветров [Movie] [Без хардсаба] [RUS(int), JAP+SUB] [1984, Приключения, фэнтези, фантастика, драма, BDRip] [720p] Galfimbul 30299604782.82 GB 0 0 1509458516

17:01

31-Окт-17

Аниме | HD Rips ·· Навсикая из Долины ветров / Nausicaa of the Valley of the Wind / Kaze no tani no Naushika / Наусика из Долины ветров [Movie] [без хардсаба] [RUS(ext), UKR, ENG, GER, FRE, KOR, CHI, JAP+SUB] [1984, Приключения, фэнтези, фантастика, драма, BDRip] [ Galfimbul 1579735275114.71 GB 0 0 1508364126

01:02

19-Окт-17

Аниме | Rips ·· Навсикая из Долины ветров / Nausicaa of the Valley of the Wind / Kaze no tani no Naushika / Наусика из Долины ветров [Movie] [Без хардсаба] [RUS(int), JAP+SUB] [1984 г., Приключения, фэнтези, фантастика, драма, BDRip] [HWP] Galfimbul 21273830971.98 GB 0 0 1454611704

21:48

4-Фев-16

Еще никто не оставлял запись к записи скачать торрент Навсикая из Долины ветров Kaze no tani no Naushika . Будь первым!

!Обратная связь