Ice Age Collision Course,2016 English CAMRip x264 797MB By TeriKasam mkv
Eps5 What Would Diplo Do (2017)

Скачать через торрент Ой, ошибочка! Chybička se vloudí Фильм бесплатно в хорошем качестве torrent

Скачивайте на UnionPeer.org фильмы через торрент без регистрации. Новинки кино в хорошем качестве через торрент. На UnionPeer.org можно скачать через торрент фильмы 2014 и 2015 годов. Самые новые фильмы.

Скачать торрент Ой, ошибочка! Chybička se vloudí бесплатно через .torrent фильм мультфильм сериал

Статистика раздачи
Размер:  112 MB   |    Зарегистрирован:  1 месяц 19 дней   |    .torrent скачан:  18 раз   |   
Раздают:  1  
   
загрузка...
 
Автор Сообщение

Galfimbul

avatar Galfimbul


Ой, ошибочка! / Chybička se vloudí / Whoops, mistake!

Страна: Чехия
Жанр: мультфильм для взрослых
Продолжительность: 00:06:35
Год выпуска: 2008
Перевод: не требуется
Русские субтитры: нет

Режиссёр: Анета Кийрова / Aneta Kýrová

Описание: Аисты, которые должны были доставить младенцев в семью людей и семью медведей, случайно перепутали малышей...

Качество: WEBRip
Формат: AVI
Видео: 2176 kbps, 720х400 (16:9), 25.000 fps, MPEG-4 Visual (XviD)
Аудио: 192 kbps, 44.1 kHz, 2 channels, MPEG Audio (MP3)
Субтитры: отсутствуют
GeneralComplete name : Chybicka se vloudi (2008).aviFormat : AVIFormat/Info : Audio Video InterleaveFile size : 112 MiBDuration : 6mn 35sOverall bit rate : 2 378 KbpsWriting application : VirtualDubMod 1.5.10.2 (build 2540/release)Writing library : VirtualDubMod build 2540/release

VideoID : 0Format : MPEG-4 VisualFormat profile : Advanced [email protected] settings, BVOP : 2Format settings, QPel : NoFormat settings, GMC : No warppointsFormat settings, Matrix : Default (H.263)Codec ID : XVIDCodec ID/Hint : XviDDuration : 6mn 35sBit rate : 2 176 KbpsWidth : 720 pixelsHeight : 400 pixelsDisplay aspect ratio : 16:9Frame rate : 25.000 fpsColor space : YUVChroma subsampling : 4:2:0Bit depth : 8 bitsScan type : ProgressiveCompression mode : LossyBits/(Pixel*Frame) : 0.302Stream size : 103 MiB (92%)Writing library : XviD 64

AudioID : 1Format : MPEG AudioFormat version : Version 1Format profile : Layer 3Codec ID : 55Codec ID/Hint : MP3Duration : 6mn 35sBit rate mode : ConstantBit rate : 192 KbpsChannel(s) : 2 channelsSampling rate : 44.1 KHzCompression mode : LossyStream size : 9.05 MiB (8%)Alignment : Split accross interleavesInterleave, duration : 40 ms (1.00 video frame)Interleave, preload duration : 500 ms


Трекер:  [ 03-Мар-2018 11:36 ]

  

Скачать .torrent

Размер .torrent файла 18 KB


Размер: 112 MB
Хэш (hash) релиза: 3850a8570c18fdbe50f5fd179d3435965cc6ce03
Подписка на обновления:

Еще никто не оставлял запись к записи скачать торрент Ой, ошибочка! Chybička se vloudí . Будь первым!

!Обратная связь