Télécharger Part 5 | Mothergunship (2018) Razor1911 | Editors' Choice - Games

Скачать через торрент Герой Юки Юна: Глава Васио Суми Yuuki Yuuna wa Yuusha de Aru: Washio Sumi no Shou бесплатно Аниме Все серии на русском torrent

Статистика раздачи
Размер:  3.27 GB   |    Зарегистрирован:  4 месяца 17 дней   |    .torrent скачан:  28 раз   |   
Раздают:  1  
   
загрузка...
 
Автор Сообщение

Galfimbul

avatar Galfimbul


Герой Юки Юна: Глава Васио Суми / Yuuki Yuuna wa Yuusha de Aru: Washio Sumi no Shou

Страна: Япония
Год выпуска: 2017
Жанр: приключения, махо-сёдзё
Тип: TV
Продолжительность: 6 эп, ~25 мин. серия
Режиссер: Киси Сэйдзи
Студия: Studio Gokumi

Описание: Приквел первого сезона Yuuki Yuuna wa Yuusha de Aru. В центре истории - прошлое одной из героинь - Того Мимори, которая раньше носила имя Васио Суми...

Качество: BDRip (gt35)
Тип релиза: Без хардсаба
Формат видео: MKV
Видео: AVC (10 bit), 1280x720, 3618 kbps, 23.976 fps
Аудио: AAC, 256 kbps, 48.0 kHz, 2 ch Язык Японский
Субтитры: ASS, внешние, полные «Akashi + Apostol» Язык субтитров русский ; Перевод: Seiya Loveless | Редактор: Apostol
GeneralUnique ID : 23040547593889924577053529750466228719 (0x115572B3B50F0E44B521BFF2545871EF)Complete name : D:\Фильмы\Аниме\Yuuki Yuuna wa Yuusha de Aru\Yuuki Yuuna wa Yuusha de Aru Washio Sumi no Shou [BD] [720p]\[gt35] Yuuki Yuuna wa Yuusha de Aru Washio Sumi no Shou [01] [BDRip, 720p, AAC].mkvFormat : MatroskaFormat version : Version 4 / Version 2File size : 678 MiBDuration : 24 min 28 sOverall bit rate : 3 877 kb/sEncoded date : UTC 2018-02-22 11:07:27Writing application : mkvmerge v20.0.0 ('I Am The Sun') 64-bitWriting library : libebml v1.3.5 + libmatroska v1.4.8

VideoID : 1Format : AVCFormat/Info : Advanced Video CodecFormat profile : High [email protected] settings, CABAC : YesFormat settings, ReFrames : 6 framesCodec ID : V_MPEG4/ISO/AVCDuration : 24 min 28 sBit rate : 3 618 kb/sWidth : 1 280 pixelsHeight : 720 pixelsDisplay aspect ratio : 16:9Frame rate mode : ConstantFrame rate : 23.976 (24000/1001) FPSColor space : YUVChroma subsampling : 4:2:0Bit depth : 10 bitsScan type : ProgressiveBits/(Pixel*Frame) : 0.164Stream size : 633 MiB (93%)Writing library : x264 core 152 r2851 ba24899 (DJATOM's build)Encoding settings : cabac=1 / ref=6 / deblock=1:1:-1 / analyse=0x3:0x113 / me=umh / subme=9 / psy=1 / psy_rd=1.00:0.00 / mixed_ref=1 / me_range=32 / chroma_me=1 / trellis=2 / 8x8dct=1 / cqm=0 / deadzone=21,11 / fast_pskip=1 / chroma_qp_offset=-2 / threads=6 / lookahead_threads=1 / sliced_threads=0 / nr=0 / decimate=1 / interlaced=0 / bluray_compat=0 / constrained_intra=0 / bframes=9 / b_pyramid=2 / b_adapt=2 / b_bias=0 / direct=1 / weightb=1 / open_gop=0 / weightp=2 / keyint=240 / keyint_min=23 / scenecut=40 / intra_refresh=0 / rc=crf / mbtree=0 / crf=15.0000 / qcomp=0.72 / qpmin=0 / qpmax=81 / qpstep=4 / ip_ratio=1.40 / pb_ratio=1.30 / aq=1:0.85Language : JapaneseDefault : YesForced : NoColor range : LimitedColor primaries : BT.709Transfer characteristics : BT.709Matrix coefficients : BT.709

AudioID : 2Format : AACFormat/Info : Advanced Audio CodecFormat profile : LCCodec ID : A_AACDuration : 24 min 28 sBit rate : 256 kb/sChannel(s) : 2 channelsChannel positions : Front: L RSampling rate : 48.0 kHzFrame rate : 46.875 FPS (1024 spf)Compression mode : LossyDelay relative to video : 9 msStream size : 44.8 MiB (7%)Language : JapaneseDefault : YesForced : No
01. Суми Васио
02. Друзья
03. Повседневная жизнь
04. Душа
05. Прощание
06. Обещание


Трекер:  [ 03-Мар-2018 02:01 ]

  

Скачать .torrent

Размер .torrent файла 18 KB


Размер: 3.27 GB
Хэш (hash) релиза: cf6d2204fad71b9488616d4e135ed8195ed17664
Подписка на обновления:

Еще никто не оставлял запись к записи скачать торрент Герой Юки Юна: Глава Васио Суми Yuuki Yuuna wa Yuusha de Aru: Washio Sumi no Shou . Будь первым!

!Обратная связь