O Duelo Drama / Faroeste Idioma: Inglês 2016 MP4 Torrent DownloadVídeo 10 / Áudio 10Sinopse: Um policial do Texas investiga uma série de mortes inexplicáveis em uma pequena cidade chamada Helena.

| Timethai Plangsilp | Homeland

Скачать через торрент Синяя собака Фильм бесплатно в хорошем качестве torrent

Скачивайте на UnionPeer.org фильмы через торрент без регистрации. Новинки кино в хорошем качестве через торрент. На UnionPeer.org можно скачать через торрент фильмы 2014 и 2015 годов. Самые новые фильмы.

Скачать торрент Синяя собака бесплатно через .torrent фильм мультфильм сериал

Статистика раздачи
Размер:  50 MB   |    Зарегистрирован:  3 месяца 19 дней   |    .torrent скачан:  23 раза   |   
Раздают:  1  
   
загрузка...
 
Автор Сообщение

Galfimbul

avatar Galfimbul


Синяя собака

Страна: Беларусь
Жанр: музыкальный мультфильм
Продолжительность: 00:04:16
Год выпуска: 2013
Перевод: не требуется
Русские субтитры: нет

Режиссёры: Руслан Синкевич, Марина Лукьянова
Автор песни: Дмитрий Строцев

Описание: Пластилиновая экранизация шуточной песенки про синюю собаку, напугавшую всех лесных зверей.

Качество: WEBRip-AVC
Формат: MP4
Видео: 1507 kbps, 1280х720 (16:9), 25.000 fps, AVC ([email protected])
Аудио: 126 kbps, 44.1 kHz, 2 channels, AAC (LC)
Субтитры: английские (hardsub)
GeneralComplete name : Синяя Собака (2013).mp4Format : MPEG-4Format profile : Base Media / Version 2Codec ID : mp42File size : 50.0 MiBDuration : 4mn 16sOverall bit rate mode : VariableOverall bit rate : 1 636 KbpsEncoded date : UTC 2016-08-21 03:36:07Tagged date : UTC 2016-08-21 03:36:07gsst : 0gstd : 256696

VideoID : 1Format : AVCFormat/Info : Advanced Video CodecFormat profile : [email protected] settings, CABAC : YesFormat settings, ReFrames : 3 framesCodec ID : avc1Codec ID/Info : Advanced Video CodingDuration : 4mn 16sBit rate : 1 507 KbpsWidth : 1 280 pixelsHeight : 720 pixelsDisplay aspect ratio : 16:9Frame rate mode : ConstantFrame rate : 25.000 fpsColor space : YUVChroma subsampling : 4:2:0Bit depth : 8 bitsScan type : ProgressiveBits/(Pixel*Frame) : 0.065Stream size : 46.1 MiB (92%)Title : ISO Media file produced by Google Inc.Encoded date : UTC 2016-08-21 03:36:07Tagged date : UTC 2016-08-21 03:36:07

AudioID : 2Format : AACFormat/Info : Advanced Audio CodecFormat profile : LCCodec ID : 40Duration : 4mn 16sBit rate mode : VariableBit rate : 126 KbpsChannel(s) : 2 channelsChannel positions : Front: L RSampling rate : 44.1 KHzCompression mode : LossyStream size : 3.84 MiB (8%)Title : ISO Media file produced by Google Inc.Encoded date : UTC 2016-08-21 03:36:07Tagged date : UTC 2016-08-21 03:36:07


Трекер:  [ 02-Мар-2018 15:06 ]

  

Скачать .torrent

Размер .torrent файла 16 KB


Размер: 50 MB
Хэш (hash) релиза: f19cc74fbbea2ad8cf90a2d407ef2a25d6f5fb54
Подписка на обновления:

Еще никто не оставлял запись к записи скачать торрент Синяя собака . Будь первым!

!Обратная связь