Queen of the South
Bungalow

Скачать через торрент Плюшевый монстр Lino: Uma Aventura de Sete Vidas Фильм бесплатно в хорошем качестве torrent

Скачивайте на UnionPeer.org фильмы через торрент без регистрации. Новинки кино в хорошем качестве через торрент. На UnionPeer.org можно скачать через торрент фильмы 2014 и 2015 годов. Самые новые фильмы.

Скачать торрент Плюшевый монстр Lino: Uma Aventura de Sete Vidas бесплатно через .torrent фильм мультфильм сериал

Статистика раздачи
Размер:  3.56 GB   |    Зарегистрирован:  1 месяц 17 дней   |    .torrent скачан:  71 раз   |   
Раздают:  1  
   
загрузка...
 
Автор Сообщение

Galfimbul

avatar Galfimbul


Плюшевый монстр / Lino: Uma Aventura de Sete Vidas

Страна: Бразилия | Start Desenhos Animados
Жанр: мультфильм, семейный
Продолжительность: 01:32:25
Год выпуска: 2017
Перевод: Профессиональный (дублированный) | iTunes
Русские субтитры: нет

Режиссёр: Рафаэль Рибас / Rafael Ribas
Роли озвучивали: Селтон Мелу, Дира Паис, Паола Оливейра, Луис Карлос Де Мораес, Гильерме Лопес, Хелио Рибейро, Лупа Мабузе, Лео Рабело, Марсело Чепа, Рейнальдо Родригес

Описание: Жизнь Лино — молодого парня, работающего аниматором в детском саду, — кажется беспросветной: его дом того и гляди развалится, девушки его не любят, а на работе целый день терроризируют дети. Отчаявшись, он решается обратиться к одному незадачливому магу, который обещает найти выход из любой ситуации. И маг находит способ кардинально изменить жизнь Лино. Однако с колдовством что-то пошло не так, и Лино превратился в огромного кота-монстра. Как всё вернуть назад и стать счастливым?

| IMDB | КиноПоиск | Сэмпл |

Качество: WEB-DL 1080p
Формат: MKV
Видео: MPEG-4 AVC Video 5014 Kbps 1920x1080 / 24,000 fps
Аудио: Dolby Digital Audio Russian 384 kbps 5.1 / 48 kHz
Субтитры: отсутствуют
Дополнительнo: Сохранены оригинальные главы
Формат                                   : MatroskaВерсия формата                           : Version 4 / Version 2Размер файла                             : 3,56 ГбайтПродолжительность                        : 1 ч. 32 м.Общий поток                              : 5508 Кбит/секНазвание фильма                          : Плюшевый монстр / Lino: Uma Aventura de Sete Vidas (2017) Web-DL 1080p [BC] -iTДата кодирования                         : UTC 2018-03-01 07:12:05Программа кодирования                    : mkvmerge v20.0.0 ('I Am The Sun') 64-bitБиблиотека кодирования                   : libebml v1.3.5 + libmatroska v1.4.8Attachments                              : 1033911_1080p.jpg 

ВидеоИдентификатор : 1Формат : AVCФормат/Информация : Advanced Video CodecПрофиль формата : [email protected]Настройки формата : CABAC / 4 Ref FramesПараметр CABAC формата : ДаПараметр RefFrames формата : 4 кадраПараметр GOP формата : N=1Идентификатор кодека : V_MPEG4/ISO/AVCПродолжительность : 1 ч. 32 м.Битрейт : 5014 Кбит/секШирина : 1920 пикселейВысота : 1080 пикселейСоотношение сторон : 16:9Режим частоты кадров : ПостоянныйЧастота кадров : 24,000 кадра/секЦветовое пространство : YUVСубдискретизация насыщенности : 4:2:0Битовая глубина : 8 битТип развёртки : ПрогрессивнаяБит/(Пиксели*Кадры) : 0.101Размер потока : 3,24 Гбайт (91%)Заголовок : Lino: Uma Aventura de Sete Vidas.2017.Web-DL.1080p.BC -iTunesЯзык : EnglishDefault : ДаForced : НетЦветовой диапазон : LimitedОсновные цвета : BT.709Характеристики трансфера : BT.709Коэффициенты матрицы : BT.709

АудиоИдентификатор : 2Формат : AC-3Формат/Информация : Audio Coding 3Идентификатор кодека : A_AC3Продолжительность : 1 ч. 32 м.Вид битрейта : ПостоянныйБитрейт : 384 Кбит/секКаналы : 6 каналовРасположение каналов : Front: L C R, Side: L R, LFEЧастота : 48,0 КГцЧастота кадров : 31,250 кадров/сек (1536 SPF)Битовая глубина : 16 битМетод сжатия : С потерямиРазмер потока : 254 Мбайт (7%)Заголовок : iTunesЯзык : RussianServiceKind/String : Complete MainDefault : ДаForced : Нет

Меню00:00:00.000 : en:-0100:06:52.583 : en:-0200:13:23.291 : en:-0300:21:18.999 : en:-0400:27:58.624 : en:-0500:32:29.124 : en:-0600:37:39.540 : en:-0700:42:07.915 : en:-0800:48:17.748 : en:-0900:53:18.206 : en:_1000:58:31.497 : en:_1101:03:52.538 : en:_1201:10:49.413 : en:_1301:17:48.913 : en:_1401:22:02.871 : en:_15



Трекер:  [ 02-Мар-2018 10:06 ]

  

Скачать .torrent

Размер .torrent файла 18 KB


Размер: 3.56 GB
Хэш (hash) релиза: e35ac87a5d0e916721c1a36fc20fc2a5549b8f6f
Подписка на обновления:

Торренты, похожие на Плюшевый монстр Lino: Uma Aventura de Sete Vidas скачать торрент

Форум Название Автор Размер S L Добавлен
Мультфильмы 2016-2018 (Новинки мультфильмов) ·· Плюшевый монстр / Lino: Uma Aventura de Sete Vidas (Рафаэль Рибас / Rafael Ribas) [2017, Бразилия, Мультфильм, семейный, WEB-DLRip] iTunes Galfimbul 732925952699 MB 0 0 1519910425

16:20

1-Мар-18

Мультфильмы 2016-2018 (Новинки мультфильмов) ·· Плюшевый монстр / Lino: Uma Aventura de Sete Vidas (Рафаэль Рибас) [2017 г., мультфильм, семейный,WEB-DL 1080p] iTunes Galfimbul 38183788593.56 GB 0 0 1519894826

12:00

1-Мар-18

Мультфильмы до 2016 ·· Плюшевый монстр / Lino: Uma Aventura de Sete Vidas (Рафаэль Рибас / Rafael Ribas) [2017, Бразилия, Мультфильм, семейный, WEB-DLRip] [Локализованный видеоряд] Dub Galfimbul 15630172161.46 GB 0 0 1519893387

11:36

1-Мар-18

Мультфильмы 2016-2018 (Новинки мультфильмов) ·· Плюшевый монстр / Lino: Uma Aventura de Sete Vidas (Рафаэль Рибас / Rafael Ribas) [2017, Бразилия, Мультфильм, семейный, WEB-DL 720p] iTunes Galfimbul 30553062832.85 GB 2 0 1519884027

09:00

1-Мар-18

Мультфильмы 2016-2018 (Новинки мультфильмов) ·· Плюшевый монстр / Lino: Uma Aventura de Sete Vidas (Рафаэль Рибас) [2017 г., мультфильм, семейный, TS 720p] DUB Galfimbul 22732693822.12 GB 0 0 1517821026

11:57

5-Фев-18

Мультфильмы 2016-2018 (Новинки мультфильмов) ·· Плюшевый монстр / Lino: Uma Aventura de Sete Vidas (Рафаэль Рибас) [2017 г., мультфильм, семейный, TS] DUB Galfimbul 14677401601.37 GB 0 0 1517821024

11:57

5-Фев-18

Еще никто не оставлял запись к записи скачать торрент Плюшевый монстр Lino: Uma Aventura de Sete Vidas . Будь первым!

!Обратная связь