Research Methods Approach Sherri Jackson | Tsui no Sumika | Robert Griffin

Скачать через торрент Баскетс Baskets Фильм бесплатно в хорошем качестве torrent

Скачивайте на UnionPeer.org фильмы через торрент без регистрации. Новинки кино в хорошем качестве через торрент. На UnionPeer.org можно скачать через торрент фильмы 2014 и 2015 годов. Самые новые фильмы.

Скачать торрент Баскетс Baskets бесплатно через .torrent фильм мультфильм сериал

Статистика раздачи
Размер:  3.66 GB   |    Зарегистрирован:  4 месяца 14 дней   |    .torrent скачан:  23 раза   |   
Раздают:  1  
   
загрузка...
 
Автор Сообщение

Galfimbul

avatar Galfimbul


Баскетс / Baskets

Год выпуска: 2017
Страна: Великобритания
Жанр: Драма, комедия
Продолжительность: ~ 00:25:00

Перевод: Профессиональный (многоголосый закадровый) (AMS)

Режиссёр: Джонатан Крисел

В ролях: Зак Галифианакис, Марта Келли, Луи Андерсон, Эрнест Адамс, Сабина Щубба, Малия Пайлс, Алекс Моррис, Джулия Грюнберг, Эллен Д. Уильямс, Мари Читхэмн и другие

Описание:
Потерпев неудачу в престижном французском учебном учреждении для клоунов, Чип Олух не теряет надежды стать профессиональным клоуном.

/ Сэмпл

Качество: WEB-DL 720p
Контейнер: MKV

Видео: AVC, 1280x720 (16:9), 25 fps, ~ 2117 kbps, 0.092 bit/pixel
Аудио 1: Русский, AC3, 48 KHz, 6 channels, 384 kbps
Аудио 2: Английский, AC3, 48 KHz, 6 channels, 384 kbps
Субтитры: Английские [Softsub SRT]

Реклама: Присутствует звуковая (два раза: в начале и конце по 12 сек)
General
Unique ID : 198105123836742430744925322506100895922 (0x9509A8B519B2020A06EEB112203170B2)
Complete name : /Baskets.S03.720p.WEB-DL.AMS/Baskets.S03E01.720p.WEB-DL.AMS.mkv
Format : Matroska
Format version : Version 4 / Version 2
File size : 734 MiB
Duration : 23mn 28s
Overall bit rate mode : Variable
Overall bit rate : 4 371 Kbps
Encoded date : UTC 2018-01-01 23:59:59
Writing application : mkvmerge v8.2.0 ('World of Adventure') 64bit
Writing library : libebml v1.3.1 + libmatroska v1.4.2

Video
ID : 1
Format : AVC
Format/Info : Advanced Video Codec
Format profile : [email protected]
Format settings, CABAC : Yes
Format settings, ReFrames : 5 frames
Codec ID : V_MPEG4/ISO/AVC
Duration : 23mn 28s
Bit rate mode : Variable
Bit rate : 3 088 Kbps
Maximum bit rate : 4 500 Kbps
Width : 1 280 pixels
Height : 720 pixels
Display aspect ratio : 16:9
Frame rate mode : Constant
Frame rate : 23.976 (24000/1001) fps
Color space : YUV
Chroma subsampling : 4:2:0
Bit depth : 8 bits
Scan type : Progressive
Bits/(Pixel*Frame) : 0.140
Stream size : 519 MiB (71%)
Language : English
Default : Yes
Forced : No
Color range : Limited
Color primaries : BT.709
Transfer characteristics : BT.709
Matrix coefficients : BT.709

Audio #1
ID : 2
Format : AC-3
Format/Info : Audio Coding 3
Mode extension : CM (complete main)
Format settings, Endianness : Big
Codec ID : A_AC3
Duration : 23mn 28s
Bit rate mode : Constant
Bit rate : 640 Kbps
Channel(s) : 6 channels
Channel positions : Front: L C R, Side: L R, LFE
Sampling rate : 48.0 KHz
Frame rate : 31.250 fps (1536 spf)
Compression mode : Lossy
Stream size : 107 MiB (15%)
Language : Russian
Default : Yes
Forced : No

Audio #2
ID : 3
Format : E-AC-3
Format/Info : Audio Coding 3
Format settings, Endianness : Big
Codec ID : A_EAC3
Duration : 23mn 28s
Bit rate mode : Constant
Bit rate : 640 Kbps
Channel(s) : 6 channels
Channel positions : Front: L C R, Side: L R, LFE
Sampling rate : 48.0 KHz
Frame rate : 187.500 fps (256 spf)
Compression mode : Lossy
Stream size : 107 MiB (15%)
Language : English
Default : No
Forced : No

Text #1
ID : 4
Format : UTF-8
Codec ID : S_TEXT/UTF8
Codec ID/Info : UTF-8 Plain Text
Duration : 23mn 21s
Bit rate : 90 bps
Count of elements : 525
Stream size : 15.5 KiB (0%)
Language : English
Default : No
Forced : No

Text #2
ID : 5
Format : UTF-8
Codec ID : S_TEXT/UTF8
Codec ID/Info : UTF-8 Plain Text
Duration : 23mn 21s
Bit rate : 99 bps
Count of elements : 556
Stream size : 17.0 KiB (0%)
Title : SDH
Language : English
Default : No
Forced : No


Трекер:  [ 01-Мар-2018 22:24 ]

  

Скачать .torrent

Размер .torrent файла 37 KB


Размер: 3.66 GB
Хэш (hash) релиза: 744627d8a5a56d24abfeafcf5b0b77d9bb848e7e
Подписка на обновления:

Еще никто не оставлял запись к записи скачать торрент Баскетс Baskets . Будь первым!

!Обратная связь