AVPlayerHD v2.91 | Infinite Skills - Cisco 200-101 (ICND2) Exam Training Video | Idol Army

Скачать через торрент Микки Маус: Принц и нищий Mickey Mouse: The Prince and the Pauper Фильм бесплатно в хорошем качестве torrent

Скачивайте на UnionPeer.org фильмы через торрент без регистрации. Новинки кино в хорошем качестве через торрент. На UnionPeer.org можно скачать через торрент фильмы 2014 и 2015 годов. Самые новые фильмы.

Скачать торрент Микки Маус: Принц и нищий Mickey Mouse: The Prince and the Pauper бесплатно через .torrent фильм мультфильм сериал

Статистика раздачи
Размер:  632 MB   |    Зарегистрирован:  3 месяца 20 дней   |    .torrent скачан:  34 раза   |   
Раздают:  1  
   
загрузка...
 
Автор Сообщение

Galfimbul

avatar Galfimbul


Принц и нищий / The Prince and the Pauper

Страна: США
Жанр: комедия, семейный
Продолжительность: 00:25:26
Год выпуска: 1990
Перевод 1: Профессиональный (дублированный) Невафильм
Перевод 2: Авторский (одноголосый закадровый) Вартан Дохалов
Русские субтитры: есть

Режиссёр: Джордж Скрибнер / George Scribner
Роли озвучивали: Уэйн Оллвэйн, Билл Фармер, Артур Бергхардт, Тони Ансельмо, Чарльз Адлер, Фрэнк Уэлкер, Элвия Оллмэн, Тим Эйстер, Роки Кракофф, Рой Дотрис.

Описание: Всем известная история принца и нищего, но теперь в исполнении Микки Мауса!

Доп. информация: Дубляж и оригинальная дорожка с DVD. Оцифровка перевода Дохалова - Вьетнам. Синхронизация звука - Dreven.

Семпл: http://sendfile.su/1402627

Качество: WEBRip-AVC
Формат: MKV

Видео: 1096x656 (1.671), 23.976 fps, AVC, ~2900 Kbps, 0.168 bits/pixel
Аудио 1: Russian, 48.0 KHz, AC3, 2 ch, 192 Kbps - Невафильм
Аудио 2: Russian, 48.0 KHz, AC3, 1 ch, 192 Kbps - Вартан Дохалов
Аудио 3: English, 48.0 KHz, AC3, 2 ch, 192 Kbps
Субтитры: русские, английские

avs4x26x.exe: -L x264_64.exe --pass 2 --bitrate 2900 --preset medium --tune film --ref 9 --merange 32 --bframes 10 --direct auto --b-adapt 2 --trellis 2 --no-fast-pskip --no-dct-decimate --psy-rd 1.00:0.20 --subme 10 --me umh --rc-lookahead 50 --vbv-bufsize 25000 --vbv-maxrate 20000 --partitions p8x8,b8x8,i4x4,i8x8 --sar 1:1 --stats

raw [info]: 1096x656p 1:1 @ 24000/1001 fps (cfr)
x264 [info]: using SAR=1/1
x264 [info]: using cpu capabilities: MMX2 SSE2Fast LZCNT
x264 [info]: profile High, level 4.0
x264 [info]: frame I:331 Avg QP:15.88 size:105304
x264 [info]: frame P:10423 Avg QP:19.61 size: 31011
x264 [info]: frame B:25827 Avg QP:22.39 size: 7502
x264 [info]: consecutive B-frames: 5.5% 7.9% 14.6% 30.0% 20.6% 19.3% 1.1% 0.3% 0.1% 0.2% 0.5%
x264 [info]: mb I I16..4: 9.6% 55.2% 35.2%
x264 [info]: mb P I16..4: 1.9% 8.1% 3.2% P16..4: 38.5% 24.1% 15.3% 0.0% 0.0% skip: 8.9%
x264 [info]: mb B I16..4: 0.1% 0.4% 0.3% B16..8: 35.1% 8.3% 2.8% direct: 4.0% skip:48.9% L0:41.8% L1:49.2% BI: 9.0%
x264 [info]: 8x8 transform intra:58.7% inter:37.4%
x264 [info]: direct mvs spatial:96.1% temporal:3.9%
x264 [info]: coded y,uvDC,uvAC intra: 73.8% 71.9% 46.2% inter: 19.3% 19.8% 6.8%
x264 [info]: i16 v,h,dc,p: 44% 17% 17% 21%
x264 [info]: i8 v,h,dc,ddl,ddr,vr,hd,vl,hu: 11% 9% 18% 8% 10% 10% 10% 10% 12%
x264 [info]: i4 v,h,dc,ddl,ddr,vr,hd,vl,hu: 12% 9% 7% 10% 13% 12% 12% 11% 14%
x264 [info]: i8c dc,h,v,p: 43% 26% 22% 10%
x264 [info]: Weighted P-Frames: Y:6.9% UV:2.8%
x264 [info]: ref P L0: 53.3% 11.0% 16.2% 5.4% 5.0% 3.0% 2.7% 1.6% 1.6% 0.3% 0.0%
x264 [info]: ref B L0: 81.6% 8.9% 3.7% 2.6% 1.2% 1.0% 0.7% 0.3%
x264 [info]: ref B L1: 97.5% 2.5%
x264 [info]: kb/s:2893.47

x264 [total]: encoded 36581 frames, 5.99 fps, 2893.47 kb/s
GeneralUnique ID : 115843835133522988573521289836888424150 (0x5726B60A5CFF7E83A7A35378AF157ED6)Complete name : C:\The Prince and the Pauper.mkvFormat : MatroskaFormat version : Version 4 / Version 2File size : 632 MiBDuration : 25 min 26 sOverall bit rate : 3 472 kb/sEncoded date : UTC 2018-03-01 13:19:19Writing application : mkvmerge v21.0.0 ('Tardigrades Will Inherit The Earth') 64-bitWriting library : libebml v1.3.5 + libmatroska v1.4.8

VideoID : 1Format : AVCFormat/Info : Advanced Video CodecFormat profile : [email protected] settings : CABAC / 9 Ref FramesFormat settings, CABAC : YesFormat settings, ReFrames : 9 framesCodec ID : V_MPEG4/ISO/AVCDuration : 25 min 25 sBit rate : 2 900 kb/sWidth : 1 096 pixelsHeight : 656 pixelsDisplay aspect ratio : 5:3Frame rate mode : ConstantFrame rate : 23.976 (24000/1001) FPSColor space : YUVChroma subsampling : 4:2:0Bit depth : 8 bitsScan type : ProgressiveBits/(Pixel*Frame) : 0.168Stream size : 526 MiB (83%)Writing library : x264 core 152 r2851 ba24899Encoding settings : cabac=1 / ref=9 / deblock=1:-1:-1 / analyse=0x3:0x113 / me=umh / subme=10 / psy=1 / psy_rd=1.00:0.20 / mixed_ref=1 / me_range=32 / chroma_me=1 / trellis=2 / 8x8dct=1 / cqm=0 / deadzone=21,11 / fast_pskip=0 / chroma_qp_offset=-3 / threads=6 / lookahead_threads=1 / sliced_threads=0 / nr=0 / decimate=0 / interlaced=0 / bluray_compat=0 / constrained_intra=0 / bframes=10 / b_pyramid=2 / b_adapt=2 / b_bias=0 / direct=3 / weightb=1 / open_gop=0 / weightp=2 / keyint=250 / keyint_min=23 / scenecut=40 / intra_refresh=0 / rc_lookahead=50 / rc=2pass / mbtree=1 / bitrate=2900 / ratetol=1.0 / qcomp=0.60 / qpmin=0 / qpmax=69 / qpstep=4 / cplxblur=20.0 / qblur=0.5 / vbv_maxrate=20000 / vbv_bufsize=25000 / nal_hrd=none / filler=0 / ip_ratio=1.40 / aq=1:1.00Language : EnglishDefault : YesForced : No

Audio #1ID : 2Format : AC-3Format/Info : Audio Coding 3Codec ID : A_AC3Duration : 25 min 26 sBit rate mode : ConstantBit rate : 192 kb/sChannel(s) : 2 channelsChannel positions : Front: L RSampling rate : 48.0 kHzFrame rate : 31.250 FPS (1536 SPF)Bit depth : 16 bitsCompression mode : LossyStream size : 34.9 MiB (6%)Title : НевафильмLanguage : RussianService kind : Complete MainDefault : YesForced : No

Audio #2ID : 3Format : AC-3Format/Info : Audio Coding 3Codec ID : A_AC3Duration : 25 min 26 sBit rate mode : ConstantBit rate : 192 kb/sChannel(s) : 2 channelsChannel positions : Front: L RSampling rate : 48.0 kHzFrame rate : 31.250 FPS (1536 SPF)Bit depth : 16 bitsCompression mode : LossyStream size : 34.9 MiB (6%)Title : Вартан ДохаловLanguage : RussianService kind : Complete MainDefault : NoForced : No

Audio #3ID : 4Format : AC-3Format/Info : Audio Coding 3Codec ID : A_AC3Duration : 25 min 26 sBit rate mode : ConstantBit rate : 192 kb/sChannel(s) : 2 channelsChannel positions : Front: L RSampling rate : 48.0 kHzFrame rate : 31.250 FPS (1536 SPF)Bit depth : 16 bitsCompression mode : LossyStream size : 34.9 MiB (6%)Language : EnglishService kind : Complete MainDefault : NoForced : No

Text #1ID : 5Format : UTF-8Codec ID : S_TEXT/UTF8Codec ID/Info : UTF-8 Plain TextDuration : 23 min 12 sBit rate : 88 b/sCount of elements : 274Stream size : 15.0 KiB (0%)Language : RussianDefault : NoForced : No

Text #2ID : 6Format : UTF-8Codec ID : S_TEXT/UTF8Codec ID/Info : UTF-8 Plain TextDuration : 23 min 9 sBit rate : 58 b/sCount of elements : 402Stream size : 9.88 KiB (0%)Language : EnglishDefault : NoForced : No

Text #3ID : 7Format : UTF-8Codec ID : S_TEXT/UTF8Codec ID/Info : UTF-8 Plain TextDuration : 23 min 9 sBit rate : 60 b/sCount of elements : 418Stream size : 10.2 KiB (0%)Title : SDHLanguage : EnglishDefault : NoForced : No


Трекер:  [ 01-Мар-2018 17:36 ]

  

Скачать .torrent

Размер .torrent файла 12 KB


Размер: 632 MB
Хэш (hash) релиза: 6a99fad9b3a809af831f60b6a74846dc0340268b
Подписка на обновления:

Еще никто не оставлял запись к записи скачать торрент Микки Маус: Принц и нищий Mickey Mouse: The Prince and the Pauper . Будь первым!

!Обратная связь