I am Just Junco #4 - Range | Allistair McNab | Revenge Of The Green Dragons

Скачать через торрент Плюшевый монстр Lino: Uma Aventura de Sete Vidas Фильм бесплатно в хорошем качестве torrent

Скачивайте на UnionPeer.org фильмы через торрент без регистрации. Новинки кино в хорошем качестве через торрент. На UnionPeer.org можно скачать через торрент фильмы 2014 и 2015 годов. Самые новые фильмы.

Скачать торрент Плюшевый монстр Lino: Uma Aventura de Sete Vidas бесплатно через .torrent фильм мультфильм сериал

Статистика раздачи
Размер:  1.46 GB   |    Зарегистрирован:  3 месяца 18 дней   |    .torrent скачан:  46 раз   |   
Раздают:  1  
   
загрузка...
 
Автор Сообщение

Galfimbul

avatar Galfimbul


Плюшевый монстр / Lino: Uma Aventura de Sete Vidas
«Поймай удачу за хвост!»

Год выхода: 2017
Выпущено: Бразилия / Start Desenhos Animados
Жанр: мультфильм, семейный
Продолжительность: 01:32:25
Перевод: Профессиональный (полное дублирование)
Субтитры: нет
Режиссер:
Рафаэль Рибас / Rafael Ribas
В ролях:
Селтон Мелу, Дира Паис, Паола Оливейра, Луис Карлос Де Мораес, Гильерме Лопес, Хелио Рибейро, Лупа Мабузе, Лео Рабело, Марсело Чепа, Рейнальдо Родригес
О фильме:
Жизнь Лино — молодого парня, работающего аниматором в детском саду, — кажется беспросветной: его дом того и гляди развалится, девушки его не любят, а на работе целый день терроризируют дети. Отчаявшись, он решается обратиться к одному незадачливому магу, который обещает найти выход из любой ситуации. И маг находит способ кардинально изменить жизнь Лино. Однако с колдовством что-то пошло не так, и Лино превратился в огромного кота-монстра. Как всё вернуть назад и стать счастливым?
Релиз групп | | IMDB | КиноПоиск | Сэмпл |
Качество: WEB-DLRip [ WEB-DL 720p]
Формат: AVI

Видео: 704x400 (1.76:1), 24.000 fps, XviD build 67 ~1861 kbps avg, 0.28 bit/pixel
Аудио: 48 kHz, AC3 Dolby Digital, 3/2 (L,C,R,l,r) + LFE ch, ~384 kbps avg - iTunes Russia
Общее
Полное имя                               : D:\Plushevyi_monstr_2017_WEB-DLRip_iT_by_Dalemake.avi
Формат                                   : AVI
Формат/Информация                        : Audio Video Interleave
Размер файла                             : 1,46 Гбайт
Продолжительность                        : 1 ч. 32 м.
Общий поток                              : 2255 Кбит/сек
Программа кодирования                    : VirtualDubMod 1.5.10.3 | www.virtualdub-fr.org || (build 2550/release)
Библиотека кодирования                   : VirtualDubMod build 2550/release

Видео
Идентификатор                            : 0
Формат                                   : MPEG-4 Visual
Профиль формата                          : Advanced [email protected]
Параметр BVOP формата                    : 1
Параметр QPel формата                    : Нет
Параметр GMC формата                     : Без точки перехода
Параметр матрицы формата                 : Выборочная
Идентификатор кодека                     : XVID
Идентификатор кодека/Подсказка           : XviD
Продолжительность                        : 1 ч. 32 м.
Битрейт                                  : 1861 Кбит/сек
Ширина                                   : 704 пикселя
Высота                                   : 400 пикселей
Соотношение сторон                       : 16:9
Частота кадров                           : 24,000 кадра/сек
Цветовое пространство                    : YUV
Субдискретизация насыщенности            : 4:2:0
Битовая глубина                          : 8 бит
Тип развёртки                            : Прогрессивная
Метод сжатия                             : С потерями
Бит/(Пиксели*Кадры)                      : 0.275
Размер потока                            : 1,20 Гбайт (83%)
Библиотека кодирования                   : XviD 67

Аудио
Идентификатор                            : 1
Формат                                   : AC-3
Формат/Информация                        : Audio Coding 3
Расширение режима                        : CM (complete main)
Параметр Endianness формата              : Big
Идентификатор кодека                     : 2000
Продолжительность                        : 1 ч. 32 м.
Вид битрейта                             : Постоянный
Битрейт                                  : 384 Кбит/сек
Каналы                                   : 6 каналов
Расположение каналов                     : Front: L C R, Side: L R, LFE
Частота                                  : 48,0 КГц
Битовая глубина                          : 16 бит
Метод сжатия                             : С потерями
Размер потока                            : 254 Мбайт (17%)
Выравнивание                             : Разделение по промежуткам
Продолжительность промежутка             : 42  мс. (1,00 видеокадр)
Время предзагрузки промежутка            : 500  мс.



Трекер:  [ 01-Мар-2018 11:36 ]

  

Скачать .torrent

Размер .torrent файла 15 KB


Размер: 1.46 GB
Хэш (hash) релиза: 1486609608a30f0aa1f068531c019a6fbce48bf6
Подписка на обновления:

Торренты, похожие на Плюшевый монстр Lino: Uma Aventura de Sete Vidas скачать торрент

Форум Название Автор Размер S L Добавлен
Мультфильмы до 2016 ·· Плюшевый монстр / Lino: Uma Aventura de Sete Vidas (Рафаэль Рибас / Rafael Ribas) [2017, Бразилия, мультфильм, семейный, WEB-DL 1080p] Dub Galfimbul 38183788593.56 GB 0 0 1519974386

10:06

2-Мар-18

Мультфильмы 2016-2018 (Новинки мультфильмов) ·· Плюшевый монстр / Lino: Uma Aventura de Sete Vidas (Рафаэль Рибас / Rafael Ribas) [2017, Бразилия, Мультфильм, семейный, WEB-DLRip] iTunes Galfimbul 732925952699 MB 0 0 1519910425

16:20

1-Мар-18

Мультфильмы 2016-2018 (Новинки мультфильмов) ·· Плюшевый монстр / Lino: Uma Aventura de Sete Vidas (Рафаэль Рибас) [2017 г., мультфильм, семейный,WEB-DL 1080p] iTunes Galfimbul 38183788593.56 GB 0 0 1519894826

12:00

1-Мар-18

Мультфильмы 2016-2018 (Новинки мультфильмов) ·· Плюшевый монстр / Lino: Uma Aventura de Sete Vidas (Рафаэль Рибас / Rafael Ribas) [2017, Бразилия, Мультфильм, семейный, WEB-DL 720p] iTunes Galfimbul 30553062832.85 GB 0 0 1519884027

09:00

1-Мар-18

Мультфильмы 2016-2018 (Новинки мультфильмов) ·· Плюшевый монстр / Lino: Uma Aventura de Sete Vidas (Рафаэль Рибас) [2017 г., мультфильм, семейный, TS 720p] DUB Galfimbul 22732693822.12 GB 0 0 1517821026

11:57

5-Фев-18

Мультфильмы 2016-2018 (Новинки мультфильмов) ·· Плюшевый монстр / Lino: Uma Aventura de Sete Vidas (Рафаэль Рибас) [2017 г., мультфильм, семейный, TS] DUB Galfimbul 14677401601.37 GB 0 0 1517821024

11:57

5-Фев-18

Еще никто не оставлял запись к записи скачать торрент Плюшевый монстр Lino: Uma Aventura de Sete Vidas . Будь первым!

!Обратная связь