Download | [Clips4sale] Sally D’Angelo – Smell my panties and fuck your aunt Sally {Roleplay} | Pretty Little Liars

Скачать через торрент музыку Звездная мишень Brass Target бесплатно без регистрации torrent

Статистика раздачи
Размер:  213 MB   |    Зарегистрирован:  3 месяца 21 день   |    .torrent скачан:  27 раз   |   
Раздают:  1  
   
загрузка...
 
Автор Сообщение

Galfimbul

avatar Galfimbul


Звездная мишень / Brass Target

Жанр: Score
Композитор: Laurence Rosenthal
Год выпуска диска: 2014
Год выпуска фильма: 1978
Производитель диска: USA
Издатель (лейбл): Varese Sarabande
Номер по каталогу: VCL 1213 1145

Аудиокодек: FLAC (*.flac)
Тип рипа: image+.cue
Битрейт аудио: lossless
Продолжительность: 36.08
Источник: собственный рип
Наличие сканов в содержимом раздачи: да (600 dpi)

Треклист
01. Mara's Theme / The Man from Switzerland [03:42.54]
02. Violence in the Bell Tower [02:01.32]
03. The Ferry on Lake Lucerne [04:51.29]
04. The Weapon and The Disguise [05:39.26]
05. Reminiscing [02:50.54]
06. Setting the Stage [04:39.72]
07. The "Accident" [03:50.43]
08. The Last of Webber / End Title (Mara's Theme) [08:32.02]
Exact Audio Copy V1.0 beta 3 from 29. August 2011

EAC extraction logfile from 26. January 2014, 15:19

Laurence Rosenthal / Brass Target

Used drive : TSSTcorpCDDVDW SH-S202H Adapter: 0 ID: 0

Read mode : SecureUtilize accurate stream : YesDefeat audio cache : YesMake use of C2 pointers : No

Read offset correction : 6Overread into Lead-In and Lead-Out : NoFill up missing offset samples with silence : YesDelete leading and trailing silent blocks : NoNull samples used in CRC calculations : YesUsed interface : Native Win32 interface for Win NT & 2000

Used output format : Internal WAV RoutinesSample format : 44.100 Hz; 16 Bit; Stereo

TOC of the extracted CD

Track | Start | Length | Start sector | End sector --------------------------------------------------------- 1 | 0:00.00 | 3:42.54 | 0 | 16703 2 | 3:42.54 | 2:01.32 | 16704 | 25810 3 | 5:44.11 | 4:51.29 | 25811 | 47664 4 | 10:35.40 | 5:39.26 | 47665 | 73115 5 | 16:14.66 | 2:50.54 | 73116 | 85919 6 | 19:05.45 | 4:39.72 | 85920 | 106916 7 | 23:45.42 | 3:50.43 | 106917 | 124209 8 | 27:36.10 | 8:32.02 | 124210 | 162611

Range status and errors

Selected range

Filename D:\Laurence Rosenthal - Brass Target\Laurence Rosenthal - Brass Target.wav

Peak level 99.7 % Extraction speed 2.7 X Range quality 100.0 % Test CRC CA6AFD70 Copy CRC CA6AFD70 Copy OK

No errors occurred

AccurateRip summary

Track 1 not present in databaseTrack 2 not present in databaseTrack 3 not present in databaseTrack 4 not present in databaseTrack 5 not present in databaseTrack 6 not present in databaseTrack 7 not present in databaseTrack 8 not present in database

None of the tracks are present in the AccurateRip database

End of status report

==== Log checksum 32138BABCB9F35D34B97D3DD87C11946EB29403305BECC81C301B1436BDBAF6F ====
Представляем Вашему вниманию музыку Лоуренса Розенталя к военно-шпионско-приключенческому фильму Звездная мишень.
Очень запоминающаяся заглавная мелодия (которая ООООЧЕНЬ похожа на тему Халка из 70-х), напряженные темы для саспенса...
В общем, перед нами все оставляющие хорошей музыки.



Трекер:  [ 28-Фев-2018 20:06 ]

  

Скачать .torrent

Размер .torrent файла 17 KB


Размер: 213 MB
Хэш (hash) релиза: e720e5e62da40adf7627aee1b47cbe9ceceb394e

Торренты, похожие на Звездная мишень Brass Target скачать торрент

Форум Название Автор Размер S L Добавлен
Саундтреки к фильмам и мультфильмам (mp3) ·· (Score) Звездная мишень / Brass Target (by Laurence Rosenthal) - 2014 (1978), MP3, 320 kbps Galfimbul 8685006283 MB 0 0 1519838143

20:15

28-Фев-18

Еще никто не оставлял запись к записи скачать торрент Звездная мишень Brass Target . Будь первым!

!Обратная связь