Franz Ferdinand – You Could Have It So Much Better (2005)
4x11 Empire

Скачать через торрент Седой медведь Фильм бесплатно в хорошем качестве torrent

Скачивайте на UnionPeer.org фильмы через торрент без регистрации. Новинки кино в хорошем качестве через торрент. На UnionPeer.org можно скачать через торрент фильмы 2014 и 2015 годов. Самые новые фильмы.

Скачать торрент Седой медведь бесплатно через .torrent фильм мультфильм сериал

Статистика раздачи
Размер:  319 MB   |    Зарегистрирован:  1 месяц 25 дней   |    .torrent скачан:  33 раза   |   
Раздают:  1  
   
загрузка...
 
Автор Сообщение

Galfimbul

avatar Galfimbul


Седой медведьСтрана: СССР
Жанр: Мультфильм, сказка
Продолжительность: ~ 0:17:19
Год выпуска: 1988
Выпущено: «Союзмультфильм»
Режиссёр: Леонид Каюков
Русские субтитры: нетОписание:Мультфильм по мотивам одноимённого сказа сибирского писателя В. Галкина. Красивая история о любви юноши к девушке, о защите природы и о вечных ценностях.

Нашла как-то старая знахарка под своей избой маленького мальчика, подкидыша. Рос мальчик Ваня и бабушке помогал, травы лекарственные собирал. Однажды в тайге встретил он медвежонка, угостил его хлебом и стал играть. Но тут пришла медведица и, превратившись в женщину, предложила переночевать у них, а утром уже пойти к матушке...
Режиссёр: Леонид Каюков
сценарист: Владимир Данилов
художник-постановщик: Татьяна Ильина
художники: Виктория Макина, Сергей Маракасов, Анна Атаманова, Татьяна Зворыкина, Ирина Светлица, Елена Кунакова, Елена Гололобова
художники-мультипликаторы: Ольга Орлова, Федор Елдинов, Владимир Шевченко, Юрий Мещеряков, Елена Малашенкова, Виталий Бобров, Владимир Зарубин, Иосиф Куроян, Алексей Букин, Галина Золотовская
оператор: Александр Чеховский
директор: Лилиана Монахова
композитор: Леонид Афанасьев
звукорежиссёр: Владимир Кутузов
редакторы: Пётр Фролов, Елена Михайлова
роли озвучивали: Нина Русланова, Герман Качин (Охотник), Александр Баранов, Александр Соловьёв, Клара Румянова, Всеволод Ларионов (читает текст).
Качество: DVDRip
Формат: AVI
Видео: 704x528 (1.33:1), 25 fps, XviD build 64 ~2372 kbps avg, 0.26 bit/pixel
Аудио: 48 kHz, AC3 Dolby Digital, 1/0 (C) ch, ~192 kbps
Субтитры: отсутствуют
ОбщееПолное имя : D:\Мульты\Седой медведь.aviФормат : AVIФормат/Информация : Audio Video InterleaveРазмер файла : 319 МбайтПродолжительность : 17 м.Общий поток : 2574 Кбит/секПрограмма кодирования : VirtualDubMod 1.5.10.2 (build 2540/release)Библиотека кодирования : VirtualDubMod build 2540/release

ВидеоИдентификатор : 0Формат : MPEG-4 VisualПрофиль формата : Advanced [email protected]Параметр BVOP формата : 2Параметр QPel формата : НетПараметр GMC формата : Без точки переходаПараметр матрицы формата : ВыборочнаяИдентификатор кодека : XVIDИдентификатор кодека/Подсказка : XviDПродолжительность : 17 м.Битрейт : 2372 Кбит/секШирина : 704 пикселяВысота : 528 пикселейСоотношение сторон : 4:3Частота кадров : 25,000 кадров/секЦветовое пространство : YUVСубдискретизация насыщенности : 4:2:0Битовая глубина : 8 битТип развёртки : ПрогрессивнаяМетод сжатия : С потерямиБит/(Пиксели*Кадры) : 0.255Размер потока : 294 Мбайт (92%)Библиотека кодирования : XviD 64

АудиоИдентификатор : 1Формат : AC-3Формат/Информация : Audio Coding 3Расширение режима : CM (complete main)Идентификатор кодека : 2000Продолжительность : 17 м.Вид битрейта : ПостоянныйБитрейт : 192 Кбит/секКаналы : 1 каналРасположение каналов : Front: CЧастота : 48,0 КГцБитовая глубина : 16 битМетод сжатия : С потерямиРазмер потока : 23,8 Мбайт (7%)Выравнивание : Разделение по промежуткамПродолжительность промежутка : 40 мс. (1,00 видеокадр)Время предзагрузки промежутка : 500 мс.

Subtitles: Not Present

Сравнение с другой раздачей:
"Седой медведь" (igor litvinenko, 704x528, 1658 kbps; MPEG Layer 3, 2 ch, 160.00 kbps)
http://screenshotcomparison.com/comparison/132934
Все раздачи

Трекер:  [ 26-Фев-2018 17:06 ]

  

Скачать .torrent

Размер .torrent файла 13 KB


Размер: 319 MB
Хэш (hash) релиза: 930d6a74348b1ad4bb642c76411f1d5ae8788513
Подписка на обновления:

Еще никто не оставлял запись к записи скачать торрент Седой медведь . Будь первым!

!Обратная связь