Gabriel Dell | Huntz Hall | Bernard Punsly

Скачать через торрент Гайдук Фильм бесплатно в хорошем качестве torrent

Скачивайте на UnionPeer.org фильмы через торрент без регистрации. Новинки кино в хорошем качестве через торрент. На UnionPeer.org можно скачать через торрент фильмы 2014 и 2015 годов. Самые новые фильмы.

Скачать торрент Гайдук бесплатно через .torrent фильм мультфильм сериал

Статистика раздачи
Размер:  118 MB   |    Зарегистрирован:  3 месяца 24 дня   |    .torrent скачан:  31 раз   |   
Раздают:  1  
   
загрузка...
 
Автор Сообщение

Galfimbul

avatar Galfimbul


Гайдук

Страна: СССР (Молдавская республика)
Жанр: мультфильм, легенда
Продолжительность: 00:10:07
Год выпуска: 1985

Режиссёры: Юрий Кацап, Леонид Горохов

Описание: По мотивам молдавских легенд о народном мстителе, ведущем борьбу с несправедливостью и жестокостью.

Доп. информация: Приз жюри за короткометражный фильм - Фестиваль в Каннах (1986)

Качество: WEBRip
Формат: AVI
Видео: 1494 kbps, 608х496 (1.226), 25.000 fps, MPEG-4 Visual (XviD)
Аудио: 128 kbps, 44.1 kHz, 2 channels, MPEG Audio (MP3)
Субтитры: отсутствуют
GeneralComplete name : Гайдук (1985).aviFormat : AVIFormat/Info : Audio Video InterleaveFile size : 118 MiBDuration : 10mn 7sOverall bit rate : 1 632 KbpsWriting application : VirtualDubMod 1.5.10.2 (build 2540/release)Writing library : VirtualDubMod build 2540/release

VideoID : 0Format : MPEG-4 VisualFormat profile : Advanced [email protected] settings, BVOP : 2Format settings, QPel : NoFormat settings, GMC : No warppointsFormat settings, Matrix : Default (H.263)Codec ID : XVIDCodec ID/Hint : XviDDuration : 10mn 7sBit rate : 1 494 KbpsWidth : 608 pixelsHeight : 496 pixelsDisplay aspect ratio : 1.226Frame rate : 25.000 fpsColor space : YUVChroma subsampling : 4:2:0Bit depth : 8 bitsScan type : ProgressiveCompression mode : LossyBits/(Pixel*Frame) : 0.198Stream size : 108 MiB (92%)Writing library : XviD 73

AudioID : 1Format : MPEG AudioFormat version : Version 1Format profile : Layer 3Codec ID : 55Codec ID/Hint : MP3Duration : 10mn 7sBit rate mode : ConstantBit rate : 128 KbpsChannel(s) : 2 channelsSampling rate : 44.1 KHzCompression mode : LossyStream size : 9.28 MiB (8%)Alignment : Split accross interleavesInterleave, duration : 40 ms (1.00 video frame)Interleave, preload duration : 500 ms


Трекер:  [ 25-Фев-2018 05:36 ]

  

Скачать .torrent

Размер .torrent файла 19 KB


Размер: 118 MB
Хэш (hash) релиза: 0087360d764be971aa0cc2282ada61f904e9b8b7
Подписка на обновления:

Торренты, похожие на Гайдук скачать торрент

Форум Название Автор Размер S L Добавлен
Документальные фильмы и телепередачи ·· Василь Быков. Фронтовые страницы / Васіль Быкаў. Франтавыя старонкі (Станислав Гайдук) [2004, документальный, DVB] Galfimbul 610269432582 MB 0 0 1520052267

07:44

3-Мар-18

Развлекательные телепередачи и шоу ·· Растаманские сказки. Дмитрий Гайдук [2007, Сказки] Galfimbul 505164683482 MB 0 0 1502509613

06:46

12-Авг-17

Российские фильмы до 2016 ·· Супермен поневоле, или Эротический мутант (Никита Джигурда, Станислав Гайдук) [1993, эротический триллер, боевик, VHSRip] Galfimbul 44298567684.13 GB 0 0 1493559634

16:40

30-Апр-17

Развлекательные телепередачи и шоу ·· Дмитрий Гайдук. Растаманские сказки / Растаманские сказки (Дмитрий Найдук) [2013, Растаманские сказки, SATRip] Galfimbul 38620927573.6 GB 0 0 1491946063

00:27

12-Апр-17

Зарубежные фильмы до 2016 ·· Гайдуки / Haiducii (Дину Коча / Dinu Cocea) [1966, Румыния, исторический, BDRemux 1080i] Dub (киностудия имени Горького) + DVO (ДТВ) + Sub Eng, Rum + Original Rum Galfimbul 1663520376015.49 GB 0 0 1491238467

19:54

3-Апр-17

Зарубежные фильмы до 2016 ·· Гайдуки / Haiducii (Дину Коча / Dinu Cocea) [1966, Румыния, исторический, BDRip 720p] Dub (киностудия имени Горького) + DVO (ДТВ) + Sub Eng, Rum + Original Rum Galfimbul 66846558556.23 GB 0 0 1491238455

19:54

3-Апр-17

Зарубежные фильмы до 2016 ·· Гайдуки / Haiducii (Дину Коча / Dinu Cocea) [1966, Румыния, Приключения, исторический, DVD5 (Custom)] Dub (Советский дубляж) + DVO + Sub Eng + Original Rum Galfimbul 45603350124.25 GB 0 0 1450034828

22:27

13-Дек-15

Документальные фильмы и телепередачи ·· Таинственный цветок папоротника (Флора Беларуси. Красная книга) (Станислав Гайдук) [Белоруссия, 2002, Документальный, флора, SATRip] Galfimbul 175796224168 MB 0 0 1418856710

01:51

18-Дек-14

Документальные фильмы и телепередачи ·· Города Беларуси (Галина Нагаева, Станислав Гайдук) [2000, историко-географический, DVDRip] Galfimbul 597133312569 MB 0 0 1418853358

00:55

18-Дек-14

Документальные фильмы и телепередачи ·· Перед судом истории (С. Гайдук) [1986, Белорусьфильм, хроникально-документальный, VHSRip] Galfimbul 104503296100 MB 0 0 1418850813

00:13

18-Дек-14

Зарубежные фильмы до 2016 ·· Приключения гайдука Ангела / Haiducii lui Saptecai (Дину Коча / Dinu Cocea) [1971 г., Исторический, VHSRip] Galfimbul 12787466241.19 GB 0 0 1364797678

09:27

1-Апр-13

Российские фильмы до 2016 ·· Последний гайдук (Валериу Гажиу) [1972, Приключения, исторический, VHSRip] L 14694072321.37 GB 0 0 1324891983

12:33

26-Дек-11

Еще никто не оставлял запись к записи скачать торрент Гайдук . Будь первым!

!Обратная связь